Ссылка на приватное зеркало нашего сайта всего за 1$. Внимание количество ограничено!!!

2 сезон

iTunes

1 сезон

1

iTunes

iTunes

iTunes

1 сезон

RePack

30

ИГРА 18+

pack

ВАЖНО

!!Акция!!

Alien_RageХит недели

RePack

MK11
pack

Забери бонус

RePack

jed

!!Акция!!

Alien_Rage

RePack

fifa19

RePack

Assassins Creed: Odyssey

RePack

NEED FOR SPEED™ PAYBACK

4 сезон

9 сезон

Бесстыжие 9 сезон

Все сериалы

все сериалы на PB.wtf

RePack

FAR CRY 5
  

Веские доказательства / Les Bonnes Causes (Кристиан-Жак) [1963, драма, криминал, BDRip 720p by msltel] DUB, MVO piratbit.pw

Веские доказательства через торрент piratbit.pw

Размер: 4.54 GB | Добавлен: 6 мес. назад | Торрент скачан:2 раза
Скачать  

05-04-2020 05:07 Веские доказательства Скачать торрент  

Название: Веские доказательства
Оригинальное название: Les Bonnes Causes
Год выпуска: 1963
Страна: Франция Италия
Жанр: драма, криминал
Продолжительность: 01:57:36
Перевод: дублированный, профессиональный многоголосый
Режиссер: Кристиан-Жак
В ролях: Жан-Луп Филипп, Марина Влади, Бурвиль, Вирна Лизи, Пьер Брассёр, Жильбер Жиль, Даниэль Лекуртуа, Хьюберт Ноэль, Юбер Дешамп, Умберто Орсини, Мони Дальме, Жак Моно, Жак Моклер

О фильме: Интрига этой истории закручена вокруг загадочной смерти и завещания Поля Дюпре. Загадки следуют одна за другой: месье Дюпре умирает после укола, сделанного его любовницей медсестрой Джиной Бианки, в пользу которой он переписал завещание, тем самым лишив наследства жену мадам Дюпре. Жена находится в любовной связи с известным адвокатом Кассиди и в день смерти мужа, будто бы, подменила ампулу с лекарством на мгновенно действующий яд. Обе дамы находятся под подозрением у чудаковатого, но справедливого следователя... Фильм снят по одноимённому роману Жана Лаборда (1960).



Качество: BDRip 720p
Формат: MKV
Видео: MPEG-4 AVC, 4944 Кбит/с, 1280x536
Аудио 1: русский, AC3, 192 kbps, 2 ch, 48 kHz [дублированный, к/с им. Горького c добавлением MVO]
Аудио 2: русский, AC3, 192 kbps, 2 ch, 48 kHz [закадровый многоголосый]
Аудио 3: французский, AC3, 192 kbps, 2 ch, 48 kHz [оригинал]
Субтитры: французские
Главы/чаптеры
Общее
Уникальный идентификатор : 218679797406402104464942096713551589609 (0xA484326EF80FAF75BEFC89280B8E30E9)
Полное имя : D:\Video\Веские доказательства.1963.BDRip 720p by msltel.mkv
Формат : Matroska
Версия формата : Version 4
Размер файла : 4,54 Гбайт
Продолжительность : 1 ч. 57 м.
Общий поток : 5 522 Кбит/сек
Название фильма : Rip by msltel
Дата кодирования : UTC 2020-04-05 02:04:57
Программа кодирования : mkvmerge v8.2.0 ('World of Adventure') 64bit
Библиотека кодирования : libebml v1.3.1 + libmatroska v1.4.2

Видео
Идентификатор : 1
Формат : AVC
Формат/Информация : Advanced Video Codec
Профиль формата : High@L4.1
Настройки формата : CABAC / 12 Ref Frames
Параметр CABAC формата : Да
Параметр RefFrames формата : 12 кадров
Идентификатор кодека : V_MPEG4/ISO/AVC
Продолжительность : 1 ч. 57 м.
Битрейт : 4 944 Кбит/сек
Ширина : 1 280 пикселей
Высота : 536 пикселей
Соотношение сторон : 2,40:1
Режим частоты кадров : Постоянный
Частота кадров : 24,000 кадра/сек
Цветовое пространство : YUV
Субдискретизация насыщенности : 4:2:0
Битовая глубина : 8 бит
Тип развёртки : Прогрессивная
Бит/(Пиксели*Кадры) : 0.300
Размер потока : 4,06 Гбайт (90%)
Библиотека кодирования : x264 core 159 r2991 1771b55
Настройки программы : cabac=1 / ref=12 / deblock=1:-2:-2 / analyse=0x3:0x113 / me=umh / subme=11 / psy=1 / psy_rd=1.00:0.15 / mixed_ref=1 / me_range=32 / chroma_me=1 / trellis=2 / 8x8dct=1 / cqm=0 / deadzone=21,11 / fast_pskip=0 / chroma_qp_offset=-3 / threads=6 / lookahead_threads=1 / sliced_threads=0 / nr=0 / decimate=1 / interlaced=0 / bluray_compat=0 / constrained_intra=0 / bframes=8 / b_pyramid=2 / b_adapt=2 / b_bias=0 / direct=1 / weightb=1 / open_gop=0 / weightp=2 / keyint=230 / keyint_min=23 / scenecut=40 / intra_refresh=0 / rc_lookahead=40 / rc=crf / mbtree=1 / crf=19.5 / qcomp=0.60 / qpmin=0 / qpmax=69 / qpstep=4 / vbv_maxrate=50000 / vbv_bufsize=62500 / crf_max=0.0 / nal_hrd=none / filler=0 / ip_ratio=1.40 / aq=1:1.00
Язык : French
Default : Да
Forced : Нет

Аудио #1
Идентификатор : 2
Формат : AC-3
Формат/Информация : Audio Coding 3
Коммерческое название : Dolby Digital
Идентификатор кодека : A_AC3
Продолжительность : 1 ч. 57 м.
Вид битрейта : Постоянный
Битрейт : 192 Кбит/сек
Каналы : 2 канала
Channel layout : L R
Частота : 48,0 КГц
Частота кадров : 31,250 кадров/сек (1536 SPF)
Метод сжатия : С потерями
Размер потока : 161 Мбайт (3%)
Заголовок : DUB к/с им. Горького c MVO
Язык : Russian
Service kind : Complete Main
Default : Да
Forced : Нет

Аудио #2
Идентификатор : 3
Формат : AC-3
Формат/Информация : Audio Coding 3
Коммерческое название : Dolby Digital
Идентификатор кодека : A_AC3
Продолжительность : 1 ч. 57 м.
Вид битрейта : Постоянный
Битрейт : 192 Кбит/сек
Каналы : 2 канала
Channel layout : L R
Частота : 48,0 КГц
Частота кадров : 31,250 кадров/сек (1536 SPF)
Метод сжатия : С потерями
Размер потока : 161 Мбайт (3%)
Заголовок : MVO
Язык : Russian
Service kind : Complete Main
Default : Нет
Forced : Нет

Аудио #3
Идентификатор : 4
Формат : AC-3
Формат/Информация : Audio Coding 3
Коммерческое название : Dolby Digital
Идентификатор кодека : A_AC3
Продолжительность : 1 ч. 57 м.
Вид битрейта : Постоянный
Битрейт : 192 Кбит/сек
Каналы : 2 канала
Channel layout : L R
Частота : 48,0 КГц
Частота кадров : 31,250 кадров/сек (1536 SPF)
Метод сжатия : С потерями
Размер потока : 161 Мбайт (3%)
Заголовок : original
Язык : French
Service kind : Complete Main
Default : Нет
Forced : Нет

Текст
Идентификатор : 5
Формат : UTF-8
Идентификатор кодека : S_TEXT/UTF8
Идентификатор кодека/Информация : UTF-8 Plain Text
Продолжительность : 1 ч. 56 м.
Битрейт : 94 бит/сек
Count of elements : 2214
Размер потока : 80,6 Кбайт (0%)
Заголовок : французские
Язык : French
Default : Нет
Forced : Нет

Меню
00:00:00.000 : en:Chapter 1
00:00:09.083 : en:Chapter 2
00:00:37.583 : en:Chapter 3
00:10:50.500 : en:Chapter 4
00:23:46.375 : en:Chapter 5
00:32:40.916 : en:Chapter 6
00:44:43.333 : en:Chapter 7
00:57:15.625 : en:Chapter 8
01:11:20.291 : en:Chapter 9
01:22:52.083 : en:Chapter 10
01:40:31.041 : en:Chapter 11
01:52:14.708 : en:Chapter 12
piratbit.pw



Скачать Веские доказательства через торрент https://c.radikal.ru/c15/2004/a6/3015e362800a.jpg Скачать фильм Веские доказательства через торрент бесплантно в хорошем качестве О фильме: Интрига этой истории закручена вокруг загадочной смерти и завещания Поля Дюпре. Загадки следуют одна за другой: месье Дюпре ... 5 10 1
Info! Золотая раздача, скачанное не засчитывается.
Торрент: Зарегистрирован [2020-04-05 05:07] · скачан: 2 раз
Статус: √ проверено
Размер: 4.54 GB
Как cкачать? Как скачать Веские доказательства через торрент | qTorrent

% Раздел Тема Автор DL S | L
Классика зарубежного кино [ 12.45 GB ] Веские доказательства / Les Bonnes Causes [1963 BDRip 1080p by msltel] DUB MVO msltel Скачать
1 | 0
Классика зарубежного кино [ 2.51 GB ] Веские доказательства / Les Bonnes Causes [1963 BDRip-AVC by msltel] DUB MVO msltel Скачать
1 | 0

28-11-2019 20:33  

Отключить всю рекламу на сайте

    Дорогой пользователь! Огромная просьба, поблагодарите релизера, оцените раздачу и оставьте свои комментарий, если Вы скачали Веские доказательства через торрент бесплатно! Внесите свою лепту в развитие PiratBit!
    Комментировать посты могут только пользователи прошедшие не сложную регистрацию
    Показать сообщения:    

    Веские доказательства через торрент
    Скачать бесплатно Веские доказательства
    Веские доказательства скачать торрент
    Веские доказательства смотреть онлайн
    Cкачать фильм Веские доказательства бесплатно
    Веские доказательства скачать торрент в хорошем качестве
    Веские доказательства смотреть онлайн бесплатно в хорошем качестве


    Вы не можете начинать темы
    Вы не можете отвечать на сообщения
    Вы не можете редактировать свои сообщения
    Вы не можете удалять свои сообщения
    Вы не можете голосовать в опросах
    Вы не можете прикреплять файлы к сообщениям
    Вы можете скачивать файлы