Ссылка на приватное зеркало всего за 1$. Внимание количество ограничено!!!

iTunes

iTunes

iTunes

1

iTunes

iTunes

iTunes

iTunes

iTunes

30
pack

Новость дня

ВАЖНО

!!Акция!!

Alien_RageХит недели

RePack

Resident Evil 21

ИГРА 18+

pack

RePack

jed

!!Акция!!

Alien_Rage

RePack

fifa19

RePack

Assassins Creed: Odyssey

RePack

NEED FOR SPEED™ PAYBACK

4 сезон

9 сезон

Бесстыжие 9 сезон

Все сериалы

все сериалы на PB.wtf

RePack

FAR CRY 5
  

Родина: Форт Салем / Motherland: Fort Salem / Сезон: 1 / Серии: 1-10 из 10 (Стив Эделсон, Хайфа Аль-Мансур, М. Дж. Бассетт) [2020, Фантастика, триллер, драма, WEB-DLRip] MVO [Кириллица] piratbit.pw

Родина: Форт Салем через торрент piratbit.pw

Раздают: 5 [ 808 KB/s ] Качают: 1 [ 0 KB/s ]
Размер: 7.28 GB | Добавлен: 4 ч. назад | Торрент скачан:6 раз
Скачать  

05-04-2020 01:37 Родина: Форт Салем Скачать торрент  

Родина: Форт Салем | Motherland: Fort Salem
Год выпуска: 2020
Страна: США
Студия: Gary Sanchez Productions
Жанр: Фантастика, триллер, драма
Продолжительность: ~ 00:45:00
Перевод: Профессиональный (многоголосый) | Кириллица
Субтитры: отсутствуют

Режиссер: Стив Эделсон, Хайфа Аль-Мансур, М. Дж. Бассетт

rating


В ролях: Тейлор Хиксон, Джессика Саттон, Эшли Николь Уильямс, Амалия Хольм, Деметрия МакКинни, Лайн Рени, Энни Джейкоб, Сара Яркин, Кай Брэдбери, Тони Жиру

Описание: В альтернативной Америке XVII века правительство прекратило охоту на ведьм взамен на их помощь в войнах. Триста лет спустя девушки с магическим даром проходят боевую подготовку на базе в Форт-Салеме. Необычный фантастический сериал на грани сказки для взрослых, социальной утопии и армейской драмы. Если бы печально известная охота на салемских ведьм была вовремя отменена, то история Америки бы сильно изменилась. Три юные ведьмы Талли, Раэла и Абигейл живут в современных Штатах, где еще три века назад их прародительницы заключили союз с правительством. Согласно договору, власти не преследуют и не казнят людей со сверхъестественными способностями, которые взамен согласились служить в армии. Девушки-ведьмы XХI века всё так же исполняют свой долг перед родиной. Новобранцы Раэла, Талли и Абигейл обучаются боевой магии, ставшей главным оружием в современных конфликтах и в борьбе с терроризмом. Ведьмы давно потеснили мужчин-солдат на поле битвы, и традиционные гендерные роли поменялись местами. Добро пожаловать в матриархальную колдовскую Америку.

Качество: WEB-DLRip
Формат: AVI

Видео: XviD, ~ 1800 Кбит/с, 720x360
Аудио: Русский (AC3, 6 ch, 384 Кбит/с)
скриншот  скриншот  скриншот  скриншот  

Общее
Полное имя : C:\Motherland.Fort.Salem.S01.2020.WEB-DLRip.ExKinoRay\Motherland.Fort.Salem.S01.E01.2020.WEB-DLRip.ExKinoRay.avi
Формат : AVI
Формат/Информация : Audio Video Interleave
Размер файла : 746 Мбайт
Продолжительность : 50 м. 24 с.
Общий поток : 2069 Кбит/сек
Программа кодирования : VirtualDubMod 1.5.10.3 | www.virtualdub-fr.org || (build 2550/release)
Библиотека кодирования : VirtualDubMod build 2550/release

Видео
Идентификатор : 0
Формат : MPEG-4 Visual
Профиль формата : Advanced Simple@L5
Настройки формата : BVOP1 / Custom Matrix
Параметр BVOP формата : 1
Параметр QPel формата : Нет
Параметр GMC формата : Без точки перехода
Параметр матрицы формата : Выборочная
Идентификатор кодека : XVID
Идентификатор кодека/Подсказка : XviD
Продолжительность : 50 м. 24 с.
Битрейт : 1694 Кбит/сек
Ширина : 720 пикселей
Высота : 360 пикселей
Соотношение сторон : 2,000
Частота кадров : 23,976 (24000/1001) кадра/сек
Частота кадров в оригинале : 23,976 (23976/1000) кадра/сек
Цветовое пространство : YUV
Субдискретизация насыщенности : 4:2:0
Битовая глубина : 8 бит
Тип развёртки : Прогрессивная
Метод сжатия : С потерями
Бит/(Пиксели*Кадры) : 0.257
Размер потока : 575 Мбайт (77%)
Библиотека кодирования : XviD 73

Аудио
Идентификатор : 1
Формат : AC-3
Формат/Информация : Audio Coding 3
Коммерческое название : Dolby Digital
Идентификатор кодека : 2000
Продолжительность : 50 м. 24 с.
Вид битрейта : Постоянный
Битрейт : 384 Кбит/сек
Каналы : 6 каналов
ChannelLayout : L R C LFE Ls Rs
Частота : 48,0 КГц
Частота кадров : 31,250 кадров/сек (1536 SPF)
Битовая глубина : 16 бит
Метод сжатия : С потерями
Размер потока : 138 Мбайт (19%)
Выравнивание : Разделение по промежуткам
ServiceKind/String : Complete Main

Когда раздача ведётся путём добавления новых серий, при каждом добавлении создётся новый торрент. Чтобы начать докачку новой серии, пользователям необходимо сделать следующее:
(1) остановить скачивание,
(2) удалить старый торрент у себя из клиента (старые серии удалять не надо),
(3) скачать новый торрент и запустить его у себя в клиенте вместо старого, при этом указать клиенту путь в старую папку, куда и должно происходить скачивание новых серий.
Ваш клиент при этом должен произвести хеширование (проверку) старой папки (если не производит сам - помогите ему сделать это), и будет докачивать только те серии, которых у вас ещё нет. Старые серии при этом не удаляются, а продолжают раздаваться!
Eсли вы уже удалили старые серии, то предотвратить повторную закачку старых серий можно, отжав галочку в соответсвующих местах при запуске нового торрента. По возможности, желательно не удалять старые серии как можно дольше, чтобы релизер не столько продолжал раздавать старые серии, а смог сконцентрироваться на новых.
piratbit.pw



Скачать Родина: Форт Салем через торрент https://a.radikal.ru/a43/2004/7b/b6eb0d209b8a.jpg Скачать фильм Родина: Форт Салем через торрент бесплантно в хорошем качестве Описание: В альтернативной Америке XVII века правительство прекратило охоту на ведьм взамен на их помощь в войнах. Триста лет спустя ... 8.4 10 11
Торрент: Зарегистрирован [2020-05-31 18:37] · скачан: 6 раз
Статус: √ проверено
Размер: 7.28 GB
Как cкачать? Как скачать Родина: Форт Салем через торрент | qTorrent

% Раздел Тема Автор DL S | L
Зарубежные сериалы [ 14.84 GB ] Родина: Форт Салем / Motherland: Fort Salem / Сезон: 1 / Серии: 1-10 из 10 [2020 WEB-DL 1080p] MVO [Кириллица] bober100 Скачать
5 | 3


Последний раз редактировалось: bober100 (2020-05-31 18:37), всего редактировалось 3 раз(а)

28-11-2019 20:33  

Отключить всю рекламу на сайте

26-04-2020 07:16 Родина: Форт Салем Скачать торрент  

Таких БАБ я презираю , ДРОЧЕВО для фемок . пусть сами смотрят ЭТОpiratbit.pw



24-05-2020 05:25 Родина: Форт Салем Скачать торрент  

ублюдское кинцо,и одной серии не выдержал..снёс на х..й! piratbit.pw



24-05-2020 09:04 Родина: Форт Салем Скачать торрент  

и здесь фемки ублюдошные... а то что быди и ведьмаки, и колдуны- это пофиг?piratbit.pw



    Дорогой пользователь! Огромная просьба, поблагодарите релизера, оцените раздачу и оставьте свои комментарий, если Вы скачали Родина: Форт Салем через торрент бесплатно! Внесите свою лепту в развитие PiratBit!
    Комментировать посты могут только пользователи прошедшие не сложную регистрацию
    Показать сообщения:    

    Родина: Форт Салем через торрент
    Скачать бесплатно Родина: Форт Салем
    Родина: Форт Салем скачать торрент
    Родина: Форт Салем смотреть онлайн
    Cкачать фильм Родина: Форт Салем бесплатно
    Родина: Форт Салем скачать торрент в хорошем качестве
    Родина: Форт Салем смотреть онлайн бесплатно в хорошем качестве


    Вы не можете начинать темы
    Вы не можете отвечать на сообщения
    Вы не можете редактировать свои сообщения
    Вы не можете удалять свои сообщения
    Вы не можете голосовать в опросах
    Вы не можете прикреплять файлы к сообщениям
    Вы можете скачивать файлы