Ссылка на приватное зеркало нашего сайта всего за 1$. Внимание количество ограничено!!!

2 сезон

iTunes

iTunes

1

iTunes

iTunes

iTunes

WEBRip

iTunes

30
pack

Вам бонус

ВАЖНО

!!Акция!!

Alien_RageХит недели

RePack

Horizon Zero Dawn

ИГРА 18+

pack

RePack

jed

!!Акция!!

Alien_Rage

RePack

fifa19

RePack

Assassins Creed: Odyssey

RePack

NEED FOR SPEED™ PAYBACK

4 сезон

9 сезон

Бесстыжие 9 сезон

Все сериалы

все сериалы на PB.wtf

RePack

FAR CRY 5
  

Кома (Никита Аргунов) [2019, фантастика, фэнтези, боевик, приключения, BDRip 720p] [Лицензия] - ExKinoRay piratbit.pw

Кома через торрент piratbit.pw

Раздают: 105 [ 1 MB/s ] Качают: 3 [ 0 KB/s ]
Размер: 4.5 GB | Добавлен: 5 мес. 19 д. назад | Торрент скачан:242 раза
Скачать  

04-04-2020 09:10 Кома Скачать торрент  

Оригинальное название: Кома
Год выпуска: 2020
Жанр: Боевик, фантастика, фэнтези, приключения
Выпущено: Россия, «Марс Медиа», Большое кино, Fresh Film, Киностудия Кит
Режиссер: Никита Аргунов
В ролях: Риналь Мухаметов, Константин Лавроненко, Антон Пампушный, Любовь Аксёнова, Милош Бикович, Ростислав Гулбис, Полина Кузьминская

О фильме: После таинственной и страшной аварии молодой талантливый архитектор приходит в себя в причудливом мире. Этот мир соткан из воспоминаний людей, находящихся в коме. Как и человеческая память, он фрагментарен, хаотичен и непостоянен. Это и есть пространство КОМЫ, в котором реки, ледники и города могут умещаться в одной комнате, а любые законы физики – нарушаться. Герою предстоит выяснить, по каким законам существует это пространство, бороться за жизнь, встретить любовь, найти, наконец, выход в реальный мир и осознать его по-новому, поняв, что такое КОМА на самом деле.



Выпущено: Россия
Студия: Марс Медиа», Большое кино, Fresh Film, Киностудия Кит
Продолжительность: 01:50:52
Озвучивание: Оригинал | Лицензия BD GER

Формат: MKV
Качество: BDRip 720p
Видео: MPEG-4 AVC, 1280x536 (2.40:1), 24.000 fps, 4420 Kbps, 0.226 bit/pixel
Аудио : 48 kHz, AC3, 5.1, 640 Kbps | RUS |
Аудио : 48 kHz, AC3, 5.1, 640 Kbps | GER
General
Unique ID : 208144278300702660576388223387383553239 (0x9C97213CBFF717D3918D5F789DFEDCD7)
Complete name : F:\Koma.2020.BDRip.720p.ExKinoRay.mkv
Format : Matroska
Format version : Version 2
File size : 4.50 GiB
Duration : 1 h 50 min
Overall bit rate : 5 816 kb/s
Movie name : Кома 2020 from ExKinoRay
Encoded date : UTC 2020-04-04 08:27:22
Writing application : mkvmerge v5.6.0 ('Kenya Kane') built on May 27 2012 16:44:04
Writing library : libebml v1.2.3 + libmatroska v1.3.0

Video
ID : 1
Format : AVC
Format/Info : Advanced Video Codec
Format profile : High@L4.1
Format settings, CABAC : Yes
Format settings, ReFrames : 12 frames
Codec ID : V_MPEG4/ISO/AVC
Duration : 1 h 50 min
Bit rate : 4 420 kb/s
Width : 1 280 pixels
Height : 536 pixels
Display aspect ratio : 2.40:1
Frame rate mode : Constant
Frame rate : 24.000 FPS
Color space : YUV
Chroma subsampling : 4:2:0
Bit depth : 8 bits
Scan type : Progressive
Bits/(Pixel*Frame) : 0.268
Stream size : 3.42 GiB (76%)
Title : Enigma
Writing library : x264 core 152 r2851 ba24899
Encoding settings : cabac=1 / ref=12 / deblock=1:-2:-2 / analyse=0x3:0x113 / me=umh / subme=10 / psy=1 / psy_rd=1.03:0.07 / mixed_ref=1 / me_range=32 / chroma_me=1 / trellis=2 / 8x8dct=1 / cqm=0 / deadzone=21,11 / fast_pskip=0 / chroma_qp_offset=-3 / threads=12 / lookahead_threads=3 / sliced_threads=0 / nr=0 / decimate=1 / interlaced=0 / bluray_compat=0 / constrained_intra=0 / bframes=10 / b_pyramid=2 / b_adapt=2 / b_bias=0 / direct=3 / weightb=1 / open_gop=0 / weightp=2 / keyint=240 / keyint_min=24 / scenecut=40 / intra_refresh=0 / rc=crf / mbtree=0 / crf=18.0 / qcomp=0.60 / qpmin=0 / qpmax=51 / qpstep=4 / ip_ratio=1.40 / pb_ratio=1.30 / aq=1:1.00
Language : English
Default : Yes
Forced : No
Color range : Limited
Color primaries : BT.709
Transfer characteristics : BT.709
Matrix coefficients : BT.709

Audio #1
ID : 2
Format : AC-3
Format/Info : Audio Coding 3
Mode extension : CM (complete main)
Format settings, Endianness : Big
Codec ID : A_AC3
Duration : 1 h 50 min
Bit rate mode : Constant
Bit rate : 640 kb/s
Channel(s) : 6 channels
Channel positions : Front: L C R, Side: L R, LFE
Sampling rate : 48.0 kHz
Frame rate : 31.250 FPS (1536 spf)
Compression mode : Lossy
Stream size : 508 MiB (11%)
Title : Blu-Ray
Language : Russian
Default : Yes
Forced : No

Audio #2
ID : 3
Format : AC-3
Format/Info : Audio Coding 3
Mode extension : CM (complete main)
Format settings, Endianness : Big
Codec ID : A_AC3
Duration : 1 h 50 min
Bit rate mode : Constant
Bit rate : 640 kb/s
Channel(s) : 6 channels
Channel positions : Front: L C R, Side: L R, LFE
Sampling rate : 48.0 kHz
Frame rate : 31.250 FPS (1536 spf)
Compression mode : Lossy
Stream size : 508 MiB (11%)
Language : German
Default : No
Forced : No

Menu
00:00:00.000 : ru:Глава 01
00:12:43.417 : ru:Глава 02
00:18:44.667 : ru:Глава 03
00:27:36.375 : ru:Глава 04
00:34:27.542 : ru:Глава 05
00:44:20.375 : ru:Глава 06
00:49:26.500 : ru:Глава 07
00:57:33.375 : ru:Глава 08
01:05:32.167 : ru:Глава 09
01:13:06.083 : ru:Глава 10
01:23:10.167 : ru:Глава 11
01:29:08.333 : ru:Глава 12
01:34:09.667 : ru:Глава 13
01:40:00.750 : ru:Глава 14
01:43:39.958 : ru:Глава 15
01:46:51.042 : ru:Глава 16


Релиз от:

Автор релиза: piratbit.pw



Скачать Кома через торрент https://i111.fastpic.ru/big/2020/0312/2c/9977ab1f3b27aa4119e75255f03c172c.jpg Скачать фильм Кома через торрент бесплантно в хорошем качестве О фильме: После таинственной и страшной аварии молодой талантливый архитектор приходит в себя в причудливом мире. Этот мир соткан из ... 8.9 10 9
Info! Золотая раздача, скачанное не засчитывается.
Торрент: Зарегистрирован [2020-04-04 09:10] · скачан: 242 раз
Статус: √ проверено
Размер: 4.5 GB
Как cкачать? Как скачать Кома через торрент | qTorrent

% Раздел Тема Автор DL S | L
T Фильмы (Blu-ray, BD-Remux, HDDVD) [ 16.27 GB ] Команда уничтожить / Kill Command [2016 BDRemux 1080p] от ExKinoRay / MVO Russian Mafia Скачать
1 | 0

28-11-2019 20:33  

Отключить всю рекламу на сайте

12-04-2020 09:07 Кома Скачать торрент  

ну уж поинтересней, чем вторжение... piratbit.pw



    Дорогой пользователь! Огромная просьба, поблагодарите релизера, оцените раздачу и оставьте свои комментарий, если Вы скачали Кома через торрент бесплатно! Внесите свою лепту в развитие PiratBit!
    Комментировать посты могут только пользователи прошедшие не сложную регистрацию
    Показать сообщения:    

    Кома через торрент
    Скачать бесплатно Кома
    Кома скачать торрент
    Кома смотреть онлайн
    Cкачать фильм Кома бесплатно
    Кома скачать торрент в хорошем качестве
    Кома смотреть онлайн бесплатно в хорошем качестве


    Вы не можете начинать темы
    Вы не можете отвечать на сообщения
    Вы не можете редактировать свои сообщения
    Вы не можете удалять свои сообщения
    Вы не можете голосовать в опросах
    Вы не можете прикреплять файлы к сообщениям
    Вы можете скачивать файлы