2 сезон

iTunes

1 сезон

1

iTunes

iTunes

iTunes

1 сезон

RePack

30

ИГРА 18+

pack

ВАЖНО

!!Акция!!

Alien_RageХит недели

RePack

MK11
pack

Забери бонус

RePack

jed

!!Акция!!

Alien_Rage

RePack

fifa19

RePack

Assassins Creed: Odyssey

RePack

NEED FOR SPEED™ PAYBACK

4 сезон

9 сезон

Бесстыжие 9 сезон

Все сериалы

все сериалы на PB.wtf

RePack

FAR CRY 5
  

Запретная планета / Forbidden Planet (Фред М. Уилкокс) [1956 г., фантастика, BDRip 720р] MVO piratbit.pw

Запретная планета через торрент piratbit.pw

Размер: 4.19 GB | Добавлен: 6 мес. назад | Торрент скачан:22 раза
Скачать  

03-04-2020 20:01 Запретная планета Скачать торрент  

Запретная планета / Forbidden Planet
Год выпуска: 1956

Страна: США

Жанр: Фантастика

Продолжительность: 01:38:30

Перевод: Профессиональный (многоголосый)

Режиссер: Фред М. Уилкокс

rating

В ролях: Уолтер Пиджон, Энн Фрэнсис, Лесли Нильсен, Уоррен Стивенс, Джек Келли, Ричард Андерсон, Эрл Холлиман, Роберт Дикс

Описание: Командир Адамс и его экипаж должны выяснить судьбу колонии землян в системе Альтаир IV, переставшей выходить на связь несколько лет назад. После года путешествия в гиперпространстве, корабль Объединенных Планет садится на планету, где они находят только двух живых человек - филолога Морбиуса и его сексапильную дочь Альтаиру. Все остальные колонисты погибли по неизвестной причине. Морбиус настаивает, чтобы астронавты немедленно покинули планету, ибо он не может гарантировать их безопасность, но командир решает остаться. Той же ночью несколько человек погибает, буквально разорванные на части некоей неведомой и невидимой силой. Несмотря на все усилия экипажа, они не могут противостоять инопланетной угрозе.
Качество: BDRip 720p
Формат: MKV
Видео: MPEG-4 AVC, 5708 Кбит/с, 1280x528
Аудио: Русский, AC-3, 2 ch, 384 Кбит/с - MVO
Видео
Идентификатор : 1
Формат : AVC
Формат/Информация : Advanced Video Codec
Профиль формата : High@L5.1
Настройки формата : CABAC / 6 Ref Frames
Параметр CABAC формата : Да
Параметр RefFrames формата : 6 кадров
Идентификатор кодека : V_MPEG4/ISO/AVC
Продолжительность : 1 ч. 38 м.
Битрейт : 5708 Кбит/сек
Ширина : 1280 пикселей
Высота : 528 пикселей
Соотношение сторон : 2,40:1
Режим частоты кадров : Постоянный
Частота кадров : 23,976 (24000/1001) кадра/сек
Цветовое пространство : YUV
Субдискретизация насыщенности : 4:2:0
Битовая глубина : 8 бит
Тип развёртки : Прогрессивная
Бит/(Пиксели*Кадры) : 0.352
Размер потока : 3,85 Гбайт (92%)
Заголовок : BLiND - HDVClub x264 (2pass) 5708 kbps
Библиотека кодирования : x264 core 54 svn-635M
Настройки программы : cabac=1 / ref=3 / deblock=1:-2:-1 / analyse=0x3:0x133 / me=umh / subme=6 / brdo=1 / mixed_ref=1 / me_range=16 / chroma_me=1 / trellis=0 / 8x8dct=1 / cqm=0 / deadzone=21,11 / chroma_qp_offset=0 / threads=1 / nr=0 / decimate=1 / mbaff=0 / bframes=3 / b_pyramid=1 / b_adapt=1 / b_bias=0 / direct=1 / wpredb=1 / bime=1 / keyint=250 / keyint_min=25 / scenecut=40 / rc=2pass / bitrate=5708 / ratetol=1.0 / rceq='blurCplx^(1-qComp)' / qcomp=0.60 / qpmin=10 / qpmax=51 / qpstep=4 / cplxblur=20.0 / qblur=0.5 / ip_ratio=1.40 / pb_ratio=1.30
Язык : English
Default : Да
Forced : Нет

Аудио
Идентификатор : 2
Формат : AC-3
Формат/Информация : Audio Coding 3
Коммерческое название : Dolby Digital
Идентификатор кодека : A_AC3
Продолжительность : 1 ч. 38 м.
Вид битрейта : Постоянный
Битрейт : 384 Кбит/сек
Каналы : 2 канала
ChannelLayout : L R
Частота : 48,0 КГц
Частота кадров : 31,250 кадров/сек (1536 SPF)
Битовая глубина : 16 бит
Метод сжатия : С потерями
Размер потока : 271 Мбайт (6%)
Заголовок : Russian
Язык : Russian
ServiceKind/String : Complete Main
Default : Да
Forced : Нет

скриншот   скриншот   скриншот   скриншот   скриншот  

piratbit.pw



Скачать Запретная планета через торрент http://pic1.kartinco.top/images/12/s2vbc.jpg Скачать фильм Запретная планета через торрент бесплантно в хорошем качестве Описание: Командир Адамс и его экипаж должны выяснить судьбу колонии землян в системе Альтаир IV, переставшей выходить на связь несколько ... 1 10 1
Торрент: Зарегистрирован [2020-04-03 20:01] · скачан: 22 раз
Статус: # сомнительно
Размер: 4.19 GB
Как cкачать? Как скачать Запретная планета через торрент | qTorrent

28-11-2019 20:33  

Отключить всю рекламу на сайте

    Дорогой пользователь! Огромная просьба, поблагодарите релизера, оцените раздачу и оставьте свои комментарий, если Вы скачали Запретная планета через торрент бесплатно! Внесите свою лепту в развитие PiratBit!
    Комментировать посты могут только пользователи прошедшие не сложную регистрацию
    Показать сообщения:    

    Запретная планета через торрент
    Скачать бесплатно Запретная планета
    Запретная планета скачать торрент
    Запретная планета смотреть онлайн
    Cкачать фильм Запретная планета бесплатно
    Запретная планета скачать торрент в хорошем качестве
    Запретная планета смотреть онлайн бесплатно в хорошем качестве


    Вы не можете начинать темы
    Вы не можете отвечать на сообщения
    Вы не можете редактировать свои сообщения
    Вы не можете удалять свои сообщения
    Вы не можете голосовать в опросах
    Вы не можете прикреплять файлы к сообщениям
    Вы можете скачивать файлы