Ссылка на приватное зеркало нашего сайта всего за 1$. Внимание количество ограничено!!!

2 сезон

iTunes

1 сезон

1

2 сезон

2 сезон

iTunes

1 сезон

RePack

30

Ultimate

ВАЖНО

ИГРА 18+

pack

RePack

MK11
pack

Забери бонус

RePack

jed

!!Акция!!

Alien_Rage

RePack

fifa19

RePack

Assassins Creed: Odyssey

RePack

NEED FOR SPEED™ PAYBACK

4 сезон

9 сезон

Бесстыжие 9 сезон

Все сериалы

все сериалы на PB.wtf

RePack

FAR CRY 5
  

Проксима / Proxima (Алис Винокур) [2019 г., боевик, драма, WEB-DLRip, Дубляж "iTunes"] piratbit.pw

Проксима через торрент piratbit.pw

Раздают: 1 [ 0 KB/s ]
Размер: 708 MB | Добавлен: 7 мес. назад | Торрент скачан:34 раза
Скачать  

02-04-2020 18:23 Проксима Скачать торрент  

Проксима / Proxima
Год выпуска: 2019
Страна: Франция, Германия / Dharamsala, Darius Films, Pathé
Жанр: боевик, драма
Продолжительность: 01:47:19
Перевод: Дубляж (iTunes)

Режиссер: Алис Винокур

rating

В ролях: Ева Грин, Зели Булан, Мэтт Диллон, Алексей Фатеев, Ларс Айдингер, Сандра Хюллер, Тронд-Эрик Вэссэл, Нэнси Тейт, Грегуар Колен, Игорь Филиппов

Описание: Сара - астронавт, которая проходит подготовку в России для последней экспедиции перед полетом на Марс. Ее партнер по полету Майк помогает ей справиться с запредельными нагрузками и поддерживает эмоционально перед расставанием с дочерью. Старт миссии "Проксима" должен состояться на космодроме Байконур.

Качество: WEB-DLRip
Формат: AVI
Видео кодек: DivX
Аудио кодек: MP3
Видео: 640x344 (1.86:1), 24.000 fps, DivX Codec 4.x ~784 kbps avg, 0.15 bit/pixel
Аудио: 48 kHz, MPEG Layer 3, 2 ch, ~128.00 kbps avg
скриншот   скриншот   скриншот   скриншот   скриншот   скриншот   скриншот   скриншот  

Общее
Полное имя : F:\ФИЛЬМЫ\Проксима.2019.D.WEB-DLRip.avi
Формат : AVI
Формат/Информация : Audio Video Interleave
Размер файла : 708 Мбайт
Продолжительность : 1 ч. 47 м.
Общий поток : 922 Кбит/сек
Программа кодирования : VirtualDubMod 1.5.10.3 | www.virtualdub-fr.org || (build 2550/release)
Библиотека кодирования : VirtualDubMod build 2550/release

Видео
Идентификатор : 0
Формат : MPEG-4 Visual
Профиль формата : Advanced Simple@L5
Настройки формата : BVOP3 / GMC3 / QPel
Параметр BVOP формата : 3
Параметр QPel формата : Да
Параметр GMC формата : 3 точки перехода
Параметр матрицы формата : Default (MPEG)
Идентификатор кодека : DIVX
Идентификатор кодека/Информация : Project Mayo
Идентификатор кодека/Подсказка : DivX 4
Продолжительность : 1 ч. 47 м.
Битрейт : 785 Кбит/сек
Ширина : 640 пикселей
Высота : 344 пикселя
Соотношение сторон : 1,85:1
Частота кадров : 24,000 кадра/сек
Цветовое пространство : YUV
Субдискретизация насыщенности : 4:2:0
Битовая глубина : 8 бит
Тип развёртки : Прогрессивная
Метод сжатия : С потерями
Бит/(Пиксели*Кадры) : 0.149
Размер потока : 603 Мбайт (85%)
Библиотека кодирования : XviD 1.2.1 (UTC 2008-12-04)

Аудио
Идентификатор : 1
Формат : MPEG Audio
Версия формата : Version 1
Профиль формата : Layer 3
Настройки формата : Joint stereo / MS Stereo
Идентификатор кодека : 55
Идентификатор кодека/Подсказка : MP3
Продолжительность : 1 ч. 47 м.
Вид битрейта : Постоянный
Битрейт : 128 Кбит/сек
Каналы : 2 канала
Частота : 48,0 КГц
Частота кадров : 41,667 кадра/сек (1152 SPF)
Метод сжатия : С потерями
Размер потока : 98,3 Мбайт (14%)
Выравнивание : Соединение по промежуткам
Продолжительность промежутка : 42 мс. (1,00 видеокадр)
Время предзагрузки промежутка : 504 мс.
Библиотека кодирования : LAME3.99r
Настройки программы : -m j -V 4 -q 2 -lowpass 17 -b 128

piratbit.pw



Скачать Проксима через торрент http://pic1.kartinco.top/images/12/gmq4n.jpg Скачать фильм Проксима через торрент бесплантно в хорошем качестве Описание: Сара - астронавт, которая проходит подготовку в России для последней экспедиции перед полетом на Марс. Ее партнер по полету Майк ... 10 10 3
Торрент: Зарегистрирован [2020-04-02 18:23] · скачан: 34 раз
Статус: √ проверено
Размер: 708 MB
Как cкачать? Как скачать Проксима через торрент | qTorrent

% Раздел Тема Автор DL S | L
Фильмы (WEB-DL 720p, 1080p) [ 4.13 GB ] Проксима / Proxima [2019 WEB-DL 1080p] bober100 Скачать
8 | 0
Фильмы 2019-2020 [DVDrip, WEB-DLRip, HDrip] (DUB, MVO) [ 1.46 GB ] Проксима / Proxima [2019 WEB-DLRip] bober100 Скачать
3 | 0
Фильмы (WEB-DL 720p, 1080p) [ 3.28 GB ] Проксима / Proxima [2019 WEB-DL 720p] bober100 Скачать
4 | 0

28-11-2019 20:33  

Отключить всю рекламу на сайте

    Дорогой пользователь! Огромная просьба, поблагодарите релизера, оцените раздачу и оставьте свои комментарий, если Вы скачали Проксима через торрент бесплатно! Внесите свою лепту в развитие PiratBit!
    Комментировать посты могут только пользователи прошедшие не сложную регистрацию
    Показать сообщения:    

    Проксима через торрент
    Скачать бесплатно Проксима
    Проксима скачать торрент
    Проксима смотреть онлайн
    Cкачать фильм Проксима бесплатно
    Проксима скачать торрент в хорошем качестве
    Проксима смотреть онлайн бесплатно в хорошем качестве


    Вы не можете начинать темы
    Вы не можете отвечать на сообщения
    Вы не можете редактировать свои сообщения
    Вы не можете удалять свои сообщения
    Вы не можете голосовать в опросах
    Вы не можете прикреплять файлы к сообщениям
    Вы можете скачивать файлы