Ссылка на приватное зеркало нашего сайта всего за 1$. Внимание количество ограничено!!!

2 сезон

iTunes

1 сезон

1

2 сезон

2 сезон

iTunes

1 сезон

RePack

30

Ultimate

ВАЖНО

ИГРА 18+

pack

RePack

MK11
pack

Забери бонус

RePack

jed

!!Акция!!

Alien_Rage

RePack

fifa19

RePack

Assassins Creed: Odyssey

RePack

NEED FOR SPEED™ PAYBACK

4 сезон

9 сезон

Бесстыжие 9 сезон

Все сериалы

все сериалы на PB.wtf

RePack

FAR CRY 5
  

Побег из Претории / Escape from Pretoria (Фрэнсис Аннан) [2020, Триллер, HDRip-AVC] MVO [HDrezka Studio] - ExKinoRay piratbit.pw

Побег из Претории через торрент piratbit.pw

Раздают: 25 [ 0 KB/s ]
Размер: 1.45 GB | Добавлен: 7 мес. назад | Торрент скачан:826 раз
Скачать  

02-04-2020 01:21 Побег из Претории Скачать торрент  

Название: Побег из Претории
Оригинальное название: Escape from Pretoria
Год выпуска: 2020
Жанр: Триллер, реальные события

Режиссер: Фрэнсис Аннан
В ролях: Дэниэл Рэдклифф, Иэн Харт, Даниэль Уэббер, Нэйтан Пейдж, Стивен Хантер, Марк Леонард Винтер, Ратидзо Мамбо, Жанетт Кронин, Дэвид Уилсон, Адам Овадия

О фильме: Двое борцов за свободу отбывают срок в одной из самых строгих тюрем мира - в «Претории». Вместе с другими узниками они планируют дерзкий и опасный побег. Но придумать план - это только первый шаг. Шаг второй - реализация плана.

rating

Страна: Великобритания, Австралия
Студия: Arclight Films, Spier Films, Premiere Picture
Продолжительность: 01:45:56
Перевод: Профессиональный (многоголосый, закадровый) | HDrezka Studio

Формат: MKV
Качество: HDRip-AVC
Видео: MPEG-4 AVC, 720x300 (2.40:1), 24.000 fps, 1509 Kbps, 0.291 bit/pixel
Аудио : 48 kHz, AC3, 5.1, 448 Kbps | MVO | RUS |
Субтитры: Русские (форсированные, полные (Наталья Раевская (Enigma)), английские

Без какой-либо рекламы
General
Unique ID : 212830247704936554786878509377821324170 (0xA01D9D5DCE8E0826B068766E042BB38A)
Complete name : F:\Escape from Pretoria.2020.MVO.HDRip.AVC.ExKinoRay.mkv
Format : Matroska
Format version : Version 2
File size : 1.45 GiB
Duration : 1 h 45 min
Overall bit rate : 1 957 kb/s
Movie name : Escape from Pretoria 2020 from ExKinoRay
Encoded date : UTC 2020-04-02 00:04:07
Writing application : mkvmerge v5.6.0 ('Kenya Kane') built on May 27 2012 16:44:04
Writing library : libebml v1.2.3 + libmatroska v1.3.0

Video
ID : 1
Format : AVC
Format/Info : Advanced Video Codec
Format profile : High@L4.1
Format settings, CABAC : Yes
Format settings, ReFrames : 12 frames
Codec ID : V_MPEG4/ISO/AVC
Duration : 1 h 45 min
Bit rate : 1 509 kb/s
Width : 720 pixels
Height : 300 pixels
Display aspect ratio : 2.40:1
Frame rate mode : Constant
Frame rate : 23.976 (24000/1001) FPS
Original frame rate : 23.976 (23976/1000) FPS
Color space : YUV
Chroma subsampling : 4:2:0
Bit depth : 8 bits
Scan type : Progressive
Bits/(Pixel*Frame) : 0.291
Stream size : 1.09 GiB (75%)
Title : Enigma
Writing library : x264 core 152 r2851 ba24899
Encoding settings : cabac=1 / ref=12 / deblock=1:-2:-2 / analyse=0x3:0x113 / me=umh / subme=10 / psy=1 / psy_rd=1.04:0.07 / mixed_ref=1 / me_range=32 / chroma_me=1 / trellis=2 / 8x8dct=1 / cqm=0 / deadzone=21,11 / fast_pskip=0 / chroma_qp_offset=-3 / threads=9 / lookahead_threads=2 / sliced_threads=0 / nr=0 / decimate=0 / interlaced=0 / bluray_compat=0 / constrained_intra=0 / bframes=10 / b_pyramid=2 / b_adapt=2 / b_bias=0 / direct=3 / weightb=1 / open_gop=0 / weightp=2 / keyint=240 / keyint_min=23 / scenecut=40 / intra_refresh=0 / rc=2pass / mbtree=0 / bitrate=1509 / ratetol=1.0 / qcomp=0.60 / qpmin=0 / qpmax=51 / qpstep=4 / cplxblur=20.0 / qblur=0.5 / ip_ratio=1.40 / pb_ratio=1.30 / aq=1:1.00
Default : Yes
Forced : No
Color range : Limited
Color primaries : BT.709
Transfer characteristics : BT.709
Matrix coefficients : BT.709

Audio
ID : 2
Format : AC-3
Format/Info : Audio Coding 3
Mode extension : CM (complete main)
Format settings, Endianness : Big
Codec ID : A_AC3
Duration : 1 h 45 min
Bit rate mode : Constant
Bit rate : 448 kb/s
Channel(s) : 6 channels
Channel positions : Front: L C R, Side: L R, LFE
Sampling rate : 48.0 kHz
Frame rate : 31.250 FPS (1536 spf)
Compression mode : Lossy
Stream size : 339 MiB (23%)
Title : MVO (HDrezka Studio)
Language : Russian
Default : Yes
Forced : No

Text #1
ID : 3
Format : UTF-8
Codec ID : S_TEXT/UTF8
Codec ID/Info : UTF-8 Plain Text
Title : Forced
Language : Russian
Default : Yes
Forced : No

Text #2
ID : 4
Format : UTF-8
Codec ID : S_TEXT/UTF8
Codec ID/Info : UTF-8 Plain Text
Title : Full (Enigma)
Language : Russian
Default : No
Forced : No

Text #3
ID : 5
Format : UTF-8
Codec ID : S_TEXT/UTF8
Codec ID/Info : UTF-8 Plain Text
Title : Full
Language : English
Default : No
Forced : No

Menu
00:00:00.000 : en:Глава 01
00:06:12.581 : en:Глава 02
00:14:09.807 : en:Глава 03
00:20:45.244 : en:Глава 04
00:26:29.588 : en:Глава 05
00:32:03.130 : en:Глава 06
00:38:09.954 : en:Глава 07
00:46:35.835 : en:Глава 08
00:52:06.749 : en:Глава 09
00:58:39.015 : en:Глава 10
01:06:19.976 : en:Глава 11
01:13:22.064 : en:Глава 12
01:20:52.264 : en:Глава 13
01:27:16.481 : en:Глава 14
01:33:55.421 : en:Глава 15
01:40:58.469 : en:Глава 16


Релиз от:

Автор релиза: piratbit.pw



Скачать Побег из Претории через торрент https://b.radikal.ru/b13/2003/eb/ec2cae8fdfe7.jpg Скачать фильм Побег из Претории через торрент бесплантно в хорошем качестве О фильме: Двое борцов за свободу отбывают срок в одной из самых строгих тюрем мира - в «Претории». Вместе с другими узниками они планируют ... 9.1 10 10
Info! Золотая раздача, скачанное не засчитывается.
Торрент: Зарегистрирован [2020-04-02 01:21] · скачан: 826 раз
Статус: √ проверено
Размер: 1.45 GB
Как cкачать? Как скачать Побег из Претории через торрент | qTorrent

% Раздел Тема Автор DL S | L
Фильмы 2019-2020 [DVDrip, WEB-DLRip, HDrip] (DUB, MVO) [ 1.4 GB ] Побег из Претории / Escape from Pretoria [2020 HDRip-AVC] - ExKinoRay Enigma2010 Скачать
4 | 0

28-11-2019 20:33  

Отключить всю рекламу на сайте

02-04-2020 19:52 Побег из Претории Скачать торрент  

не понравился фильмpiratbit.pw



03-04-2020 15:00 Побег из Претории Скачать торрент  

LNR писал(а):

не понравился фильм

почему?piratbit.pw



03-04-2020 20:58 Побег из Претории Скачать торрент  

Dantist13 писал(а):

LNR писал(а):

не понравился фильм

почему?

, он так долго делал свои деревянные ключи! я блин уснуть успел ! это пипец
завязка фильма за 5 мин показали что как , хоп он в тюрьме
И началось...... тянуть кота за яйца
по началу вроде интересно как он сделал 1 ключ, потом другой , потом третий и бл.дь понеслась.... долбаное несчетное количество ключей. Хрен знает чем фильм закончился я так и не досмотрел.
Я закончил смотреть на 1ч 15мин он там ещё ключи мастерил))))
МОЯ ОЦЕНКА 4,5piratbit.pw



06-04-2020 12:22 Побег из Претории Скачать торрент  

Неправда, фильм не затяжной. Интересная картина получилась, смотрел не напрягаясьpiratbit.pw



    Дорогой пользователь! Огромная просьба, поблагодарите релизера, оцените раздачу и оставьте свои комментарий, если Вы скачали Побег из Претории через торрент бесплатно! Внесите свою лепту в развитие PiratBit!
    Комментировать посты могут только пользователи прошедшие не сложную регистрацию
    Показать сообщения:    

    Побег из Претории через торрент
    Скачать бесплатно Побег из Претории
    Побег из Претории скачать торрент
    Побег из Претории смотреть онлайн
    Cкачать фильм Побег из Претории бесплатно
    Побег из Претории скачать торрент в хорошем качестве
    Побег из Претории смотреть онлайн бесплатно в хорошем качестве


    Вы не можете начинать темы
    Вы не можете отвечать на сообщения
    Вы не можете редактировать свои сообщения
    Вы не можете удалять свои сообщения
    Вы не можете голосовать в опросах
    Вы не можете прикреплять файлы к сообщениям
    Вы можете скачивать файлы