Ссылка на приватное зеркало нашего сайта всего за 1$. Внимание количество ограничено!!!

2 сезон

iTunes

1 сезон

1

2 сезон

2 сезон

iTunes

1 сезон

RePack

30

Ultimate

ВАЖНО

ИГРА 18+

pack

RePack

MK11
pack

Забери бонус

RePack

jed

!!Акция!!

Alien_Rage

RePack

fifa19

RePack

Assassins Creed: Odyssey

RePack

NEED FOR SPEED™ PAYBACK

4 сезон

9 сезон

Бесстыжие 9 сезон

Все сериалы

все сериалы на PB.wtf

RePack

FAR CRY 5
  

Дум: Аннигиляция / Doom: Annihilation (Тони Гиглио) [2019, ужасы, фантастика, боевик, BDRip-AVC] DUB - ExKinoRay piratbit.pw

Дум: Аннигиляция через торрент piratbit.pw

Раздают: 2 [ 101 KB/s ]
Размер: 1.89 GB | Добавлен: 7 мес. назад | Торрент скачан:448 раз
Скачать  

31-03-2020 17:12 Дум: Аннигиляция Скачать торрент  

Название: Doom: Аннигиляция
Оригинальное название: Doom: Annihilation
Год выхода: 2019
Жанр: ужасы, фантастика, боевик, триллер, приключения
Режиссер: Тони Гиглио
В ролях: Эми Мэнсон, Луис Мэндилор, Нина Бергман, Кейт Николс, Лорина Камбурова, Доминик Мафэм, Люк Аллен-Гейл, Хари Диллон, Амер Чадха-Патель, Джемма Мур

Описание: Отряд морпехов прилетает на марсианский спутник Фобос, где ведутся секретные эксперименты, связанные с телепортацией. По прибытии оказывается, что база практически обесточена и на связь не выходит. Проникнув в сооружение через эвакуационный выход, военные сталкиваются с многочисленными агрессивными монстрами, в которых превратились местные учёные.

rating

Страна: США
Продолжительность: 01:36:39
Перевод: Профессиональный (дублированный) ТВ3

Формат: MKV
Качество: BDRip-AVC
Видео: MPEG-4 AVC, 1024x576 (16:9), 23.976 fps, 2164 Kbps, 0.153 bit/pixel
Аудио #01: 48 kHz, AC3, 2.0, 192 Kbps | Dub | RUS |
Аудио #02: 48 kHz, AC3, 5.1, 448 Kbps | Оригинал | ENG |
Субтитры: Английские
General
General
Unique ID : 213285500309431306271648767801403916721 (0xA0754B0D838A5C92B6582F202D8041B1)
Complete name : F:Doom Annihilation 2019.Dub.BDRip.AVC.ExKinoRay.mkv
Format : Matroska
Format version : Version 2
File size : 1.89 GiB
Duration : 1 h 36 min
Overall bit rate : 2 793 kb/s
Movie name : Doom Annihilation 2019 from ExKinoRay
Encoded date : UTC 2020-03-31 16:48:08
Writing application : mkvmerge v5.6.0 ('Kenya Kane') built on May 27 2012 16:44:04
Writing library : libebml v1.2.3 + libmatroska v1.3.0
Attachments : front.jpg

Video
ID : 1
Format : AVC
Format/Info : Advanced Video Codec
Format profile : High@L4.1
Format settings, CABAC : Yes
Format settings, ReFrames : 12 frames
Codec ID : V_MPEG4/ISO/AVC
Duration : 1 h 36 min
Bit rate : 2 164 kb/s
Width : 1 024 pixels
Height : 576 pixels
Display aspect ratio : 16:9
Frame rate mode : Constant
Frame rate : 23.976 (23976/1000) FPS
Color space : YUV
Chroma subsampling : 4:2:0
Bit depth : 8 bits
Scan type : Progressive
Bits/(Pixel*Frame) : 0.153
Stream size : 1.42 GiB (75%)
Title : Enigma
Writing library : x264 core 152 r2851 ba24899
Encoding settings : cabac=1 / ref=12 / deblock=1:-2:-2 / analyse=0x3:0x113 / me=umh / subme=10 / psy=1 / psy_rd=1.05:0.10 / mixed_ref=1 / me_range=32 / chroma_me=1 / trellis=2 / 8x8dct=1 / cqm=0 / deadzone=21,11 / fast_pskip=0 / chroma_qp_offset=-3 / threads=12 / lookahead_threads=3 / sliced_threads=0 / nr=0 / decimate=0 / interlaced=0 / bluray_compat=0 / constrained_intra=0 / bframes=10 / b_pyramid=2 / b_adapt=2 / b_bias=0 / direct=3 / weightb=1 / open_gop=0 / weightp=2 / keyint=240 / keyint_min=23 / scenecut=40 / intra_refresh=0 / rc=2pass / mbtree=0 / bitrate=2164 / ratetol=1.0 / qcomp=0.60 / qpmin=0 / qpmax=51 / qpstep=4 / cplxblur=20.0 / qblur=0.5 / ip_ratio=1.40 / pb_ratio=1.30 / aq=1:1.00
Language : English
Default : Yes
Forced : No
Color range : Limited
Color primaries : BT.709
Transfer characteristics : BT.709
Matrix coefficients : BT.709

Audio #1
ID : 2
Format : AC-3
Format/Info : Audio Coding 3
Mode extension : CM (complete main)
Format settings, Endianness : Big
Codec ID : A_AC3
Duration : 1 h 36 min
Bit rate mode : Constant
Bit rate : 192 kb/s
Channel(s) : 2 channels
Channel positions : Front: L R
Sampling rate : 48.0 kHz
Frame rate : 31.250 FPS (1536 spf)
Compression mode : Lossy
Stream size : 133 MiB (7%)
Title : MVO (ТВ3)
Language : Russian
Default : Yes
Forced : No

Audio #2
ID : 3
Format : AC-3
Format/Info : Audio Coding 3
Mode extension : CM (complete main)
Format settings, Endianness : Big
Codec ID : A_AC3
Duration : 1 h 36 min
Bit rate mode : Constant
Bit rate : 448 kb/s
Channel(s) : 6 channels
Channel positions : Front: L C R, Side: L R, LFE
Sampling rate : 48.0 kHz
Frame rate : 31.250 FPS (1536 spf)
Compression mode : Lossy
Stream size : 310 MiB (16%)
Title : Original
Language : English
Default : No
Forced : No

Text
ID : 4
Format : UTF-8
Codec ID : S_TEXT/UTF8
Codec ID/Info : UTF-8 Plain Text
Language : English
Default : No
Forced : No

Menu
00:00:00.000 : en:00:00:00.000
00:04:47.037 : en:00:04:47.037
00:11:39.073 : en:00:11:39.073
00:17:51.195 : en:00:17:51.195
00:21:43.594 : en:00:21:43.594
00:25:43.792 : en:00:25:43.792
00:29:18.674 : en:00:29:18.674
00:34:06.836 : en:00:34:06.836
00:39:14.018 : en:00:39:14.018
00:45:43.908 : en:00:45:43.908
00:49:57.661 : en:00:49:57.661
00:54:35.230 : en:00:54:35.230
01:00:09.981 : en:01:00:09.981
01:04:59.562 : en:01:04:59.562
01:11:41.631 : en:01:11:41.631
01:16:43.140 : en:01:16:43.140
01:21:27.216 : en:01:21:27.216
01:25:45.640 : en:01:25:45.640
01:31:38.618 : en:01:31:38.618
01:33:37.695 : en:01:33:37.695



Релиз от:

Автор релиза: piratbit.pw



Скачать Дум: Аннигиляция через торрент https://a.radikal.ru/a26/1910/e4/356809698835.jpg Скачать фильм Дум: Аннигиляция через торрент бесплантно в хорошем качестве Описание: Отряд морпехов прилетает на марсианский спутник Фобос, где ведутся секретные эксперименты, связанные с телепортацией. По ... 8.5 10 19
Info! Золотая раздача, скачанное не засчитывается.
Торрент: Зарегистрирован [2020-03-31 17:12] · скачан: 448 раз
Статус: √ проверено
Размер: 1.89 GB
Как cкачать? Как скачать Дум: Аннигиляция через торрент | qTorrent

28-11-2019 20:33  

Отключить всю рекламу на сайте

31-03-2020 18:31 Дум: Аннигиляция Скачать торрент  

Дермище..piratbit.pw



01-04-2020 07:38 Дум: Аннигиляция Скачать торрент  

gaziKooF писал(а):

Дермище..

Ещё какое...piratbit.pw



    Дорогой пользователь! Огромная просьба, поблагодарите релизера, оцените раздачу и оставьте свои комментарий, если Вы скачали Дум: Аннигиляция через торрент бесплатно! Внесите свою лепту в развитие PiratBit!
    Комментировать посты могут только пользователи прошедшие не сложную регистрацию
    Показать сообщения:    

    Дум: Аннигиляция через торрент
    Скачать бесплатно Дум: Аннигиляция
    Дум: Аннигиляция скачать торрент
    Дум: Аннигиляция смотреть онлайн
    Cкачать фильм Дум: Аннигиляция бесплатно
    Дум: Аннигиляция скачать торрент в хорошем качестве
    Дум: Аннигиляция смотреть онлайн бесплатно в хорошем качестве


    Вы не можете начинать темы
    Вы не можете отвечать на сообщения
    Вы не можете редактировать свои сообщения
    Вы не можете удалять свои сообщения
    Вы не можете голосовать в опросах
    Вы не можете прикреплять файлы к сообщениям
    Вы можете скачивать файлы