Ссылка на приватное зеркало всего за 1$. Внимание количество ограничено!!!

iTunes

iTunes

iTunes

1

iTunes

iTunes

iTunes

iTunes

iTunes

30
pack

Новость дня

ВАЖНО

!!Акция!!

Alien_RageХит недели

RePack

Resident Evil 21

ИГРА 18+

pack

RePack

jed

!!Акция!!

Alien_Rage

RePack

fifa19

RePack

Assassins Creed: Odyssey

RePack

NEED FOR SPEED™ PAYBACK

4 сезон

9 сезон

Бесстыжие 9 сезон

Все сериалы

все сериалы на PB.wtf

RePack

FAR CRY 5
  

Звездный десант 2: Герой федерации / Starship Troopers 2: Hero of the Federation (Фил Типпетт) [2004 г., Боевик, Приключения, Ужасы, Фантастика, BDRip 720p / 60 FPS, Профессиональный (многоголосый)] от R.G. HD-Films piratbit.pw

Звездный десант 2: Герой федерации через торрент piratbit.pw

Раздают: 4 [ 0 KB/s ]
Размер: 3.64 GB | Добавлен: 2 мес. назад | Торрент скачан:49 раз
Скачать  

31-03-2020 10:04 Звездный десант 2: Герой федерации Скачать торрент  

Звездный десант 2: Герой федерации / Starship Troopers 2: Hero of the Federation
Год выпуска: 2004
Страна: США
Жанр: Боевик, Приключения, Ужасы, Фантастика
Продолжительность: 01:31:36
Перевод: Профессиональный (многоголосый закадровый)
Субтитры: Russian, English

Режиссер: Фил Типпетт

Бюджет: $7 000 000
Премьера в мире: 24 апреля 2004

rating

В ролях: Билли Браун, Ричард Берджи, Келли Карлсон, Сай Картер, Сандрин Холт, Эд Лотер, Жан-Поль Ману, Лоуренс Моносон, Коллин Порш, Дрю Пауэлл

Описание: Войска Земной Федерации переходят в контрнаступление и успешно уничтожают колонии злобных инсектойдов.
Но твари не cдаются — они разработали мощное биологическое оружие, способное уничтожить землян…


Качество: BDRip 720p / 60 FPS
Формат: MKV
Видео кодек: H.264
Аудио кодек: AC3
Видео: x264, 1280 x 720 ( 16:9 ), 5303 kbps, 60,000 fps, ( 0.096 bpp)
Аудио#1: Русский, AC-3, 48.0 KHz, 6 ch, 384 Kbps ( MVO )
Релиз от:

скриншот   скриншот   скриншот   скриншот   скриншот   скриншот  Автор рипа: slaventi-69
x264 [info]: frame I:1706 Avg QP:14.42 size: 82187
x264 [info]: frame P:83009 Avg QP:17.32 size: 23644
x264 [info]: frame B:244733 Avg QP:19.51 size: 6281
x264 [info]: consecutive B-frames: 2.5% 4.2% 13.6% 17.2% 54.8% 7.6%


Общее
Уникальный идентификатор : 304110148334556024446640429895518720919 (0xE4C97BEE6EFA294A30F1CB6CA5271397)
Полное имя : F:\Starship.Troopers.2.(2004).BDRip.720p.(60 Fps).mkv
Формат : Matroska
Версия формата : Version 4
Размер файла : 3,64 Гбайт
Продолжительность : 1 ч. 31 м.
Общий поток : 5691 Кбит/сек
Название фильма : Звездный десант 2: Герой федерации / Starship Troopers 2: Hero of the Federation (2004) BDRip 720p (60 Fps)
Дата кодирования : UTC 2020-03-26 10:02:31
Программа кодирования : mkvmerge v42.0.0 ('Overtime') 64-bit
Библиотека кодирования : libebml v1.3.10 + libmatroska v1.5.2

Видео
Идентификатор : 1
Формат : AVC
Формат/Информация : Advanced Video Codec
Профиль формата : High@L4.1
Настройки формата : CABAC / 8 Ref Frames
Параметр CABAC формата : Да
Параметр RefFrames формата : 8 кадров
Идентификатор кодека : V_MPEG4/ISO/AVC
Продолжительность : 1 ч. 31 м.
Битрейт : 5303 Кбит/сек
Ширина : 1280 пикселей
Высота : 720 пикселей
Соотношение сторон : 16:9
Режим частоты кадров : Постоянный
Частота кадров : 60,000 кадров/сек
Цветовое пространство : YUV
Субдискретизация насыщенности : 4:2:0
Битовая глубина : 8 бит
Тип развёртки : Прогрессивная
Бит/(Пиксели*Кадры) : 0.096
Размер потока : 3,39 Гбайт (93%)
Заголовок : slaventi-69 ( R.G. HD-Films | 60 fps )
Библиотека кодирования : x264 core 130 r2273 b3065e6
Настройки программы : cabac=1 / ref=8 / deblock=1:-3:-3 / analyse=0x3:0x133 / me=umh / subme=9 / psy=1 / psy_rd=1.00:0.00 / mixed_ref=1 / me_range=26 / chroma_me=1 / trellis=2 / 8x8dct=1 / cqm=0 / deadzone=21,11 / fast_pskip=0 / chroma_qp_offset=-2 / threads=6 / lookahead_threads=4 / sliced_threads=0 / nr=0 / decimate=1 / interlaced=0 / bluray_compat=0 / constrained_intra=0 / bframes=5 / b_pyramid=2 / b_adapt=2 / b_bias=0 / direct=3 / weightb=1 / open_gop=0 / weightp=2 / keyint=250 / keyint_min=25 / scenecut=40 / intra_refresh=0 / rc_lookahead=50 / rc=crf / mbtree=1 / crf=16.0 / qcomp=0.60 / qpmin=0 / qpmax=69 / qpstep=4 / ip_ratio=1.40 / aq=1:1.00
Язык : English
Default : Да
Forced : Нет

Аудио
Идентификатор : 2
Формат : AC-3
Формат/Информация : Audio Coding 3
Коммерческое название : Dolby Digital
Идентификатор кодека : A_AC3
Продолжительность : 1 ч. 31 м.
Вид битрейта : Постоянный
Битрейт : 384 Кбит/сек
Каналы : 6 каналов
Channel layout : L R C LFE Ls Rs
Частота : 48,0 КГц
Частота кадров : 31,250 кадров/сек (1536 SPF)
Битовая глубина : 16 бит
Метод сжатия : С потерями
Размер потока : 251 Мбайт (7%)
Заголовок : MVO
Язык : Russian
ServiceKind/String : Complete Main
Default : Да
Forced : Нет

Текст #1
Идентификатор : 3
Формат : UTF-8
Идентификатор кодека : S_TEXT/UTF8
Идентификатор кодека/Информация : UTF-8 Plain Text
Продолжительность : 1 ч. 23 м.
Битрейт : 66 бит/сек
ElementCount : 745
Размер потока : 40,6 Кбайт (0%)
Язык : Russian
Default : Нет
Forced : Нет

Текст #2
Идентификатор : 4
Формат : UTF-8
Идентификатор кодека : S_TEXT/UTF8
Идентификатор кодека/Информация : UTF-8 Plain Text
Продолжительность : 1 ч. 23 м.
Битрейт : 46 бит/сек
ElementCount : 764
Размер потока : 28,2 Кбайт (0%)
Язык : English
Default : Нет
Forced : Нет

Меню
00:00:00.000 : en:00:00:00.000
00:05:39.422 : en:00:05:39.422
00:10:24.332 : en:00:10:24.332
00:14:13.227 : en:00:14:13.227
00:19:55.319 : en:00:19:55.319
00:25:03.585 : en:00:25:03.585
00:30:29.494 : en:00:30:29.494
00:35:13.528 : en:00:35:13.528
00:40:24.213 : en:00:40:24.213
00:46:36.919 : en:00:46:36.919
00:49:39.560 : en:00:49:39.560
00:54:31.101 : en:00:54:31.101
01:01:14.629 : en:01:01:14.629
01:07:44.102 : en:01:07:44.102
01:16:38.260 : en:01:16:38.260
01:22:45.335 : en:01:22:45.335

Просьба к переливающим на другие сайты, в оформлении указывайте пожалуйста авторство группы R.G. HD-Films piratbit.pw



Скачать Звездный десант 2: Герой федерации через торрент http://pic.kartinco.top/images/2018/p1dat.jpg Скачать фильм Звездный десант 2: Герой федерации через торрент бесплантно в хорошем качестве Описание: Войска Земной Федерации переходят в контрнаступление и успешно уничтожают колонии злобных инсектойдов.Но твари не cдаются — они ... 9.7 10 3
Info! Золотая раздача, скачанное не засчитывается.
Торрент: Зарегистрирован [2020-03-31 10:04] · скачан: 49 раз
Статус: √ проверено
Размер: 3.64 GB
Как cкачать? Как скачать Звездный десант 2: Герой федерации через торрент | qTorrent

28-11-2019 20:33  

Отключить всю рекламу на сайте

31-03-2020 22:19 Звездный десант 2: Герой федерации Скачать торрент  

Спасибо большое за фильм!!! Забираю в коллекцию.piratbit.pw



01-04-2020 18:16 Звездный десант 2: Герой федерации Скачать торрент  

А первая часть уже была? Я походу пропустил!piratbit.pw



01-04-2020 18:38 Звездный десант 2: Герой федерации Скачать торрент  

Не было, просили только вторую.piratbit.pw



    Дорогой пользователь! Огромная просьба, поблагодарите релизера, оцените раздачу и оставьте свои комментарий, если Вы скачали Звездный десант 2: Герой федерации через торрент бесплатно! Внесите свою лепту в развитие PiratBit!
    Комментировать посты могут только пользователи прошедшие не сложную регистрацию
    Показать сообщения:    

    Звездный десант 2: Герой федерации через торрент
    Скачать бесплатно Звездный десант 2: Герой федерации
    Звездный десант 2: Герой федерации скачать торрент
    Звездный десант 2: Герой федерации смотреть онлайн
    Cкачать фильм Звездный десант 2: Герой федерации бесплатно
    Звездный десант 2: Герой федерации скачать торрент в хорошем качестве
    Звездный десант 2: Герой федерации смотреть онлайн бесплатно в хорошем качестве


    Вы не можете начинать темы
    Вы не можете отвечать на сообщения
    Вы не можете редактировать свои сообщения
    Вы не можете удалять свои сообщения
    Вы не можете голосовать в опросах
    Вы не можете прикреплять файлы к сообщениям
    Вы можете скачивать файлы