Marvel's Avengers Deluxe Edition (супер цена) 159р. Внимание количество ограничено!!!

2 сезон

iTunes

iTunes

1

iTunes

iTunes

iTunes

WEBRip

iTunes

30
pack

Новость дня

ВАЖНО

!!Акция!!

Alien_RageХит недели

RePack

Horizon Zero Dawn

ИГРА 18+

pack

RePack

jed

!!Акция!!

Alien_Rage

RePack

fifa19

RePack

Assassins Creed: Odyssey

RePack

NEED FOR SPEED™ PAYBACK

4 сезон

9 сезон

Бесстыжие 9 сезон

Все сериалы

все сериалы на PB.wtf

RePack

FAR CRY 5
  

Калашников (Константин Буслов) [2020, биография, история, WEB-DL 1080p] [iTunes] piratbit.pw

Калашников через торрент piratbit.pw

Раздают: 7 [ 37 KB/s ]
Размер: 4.01 GB | Добавлен: 4 мес. 21 д. назад | Торрент скачан:599 раз
Скачать  

27-03-2020 15:55 Калашников Скачать торрент  

Калашников
Год выпуска: 2020
Страна: Россия
Студия: RB Production
Жанр: биография, история
Продолжительность: 01:44:31
Перевод: Не требуется | iTunes
Субтитры: отсутствуют

Режиссер: Константин Буслов

rating

В ролях: Юрий Борисов, Ольга Лерман, Артур Смольянинов, Эльдар Калимулин, Виталий Хаев, Валерий Баринов, Анатолий Лобоцкий, Алексей Вертков, Дмитрий Богдан, Максим Битюков

Описание: Калашников. Все знают эту фамилию, но не все знают, какой долгий и тернистый путь прошел парень-самоучка, чтобы в 28 создать легендарное оружие АК-47, которое по сей день является символом оружейной мысли нашего времени.

Качество: WEB-DL 1080p
Формат: MKV

Видео: MPEG-4 AVC, 5121 Kb/s, 1920x800, 24.000 fps
Аудио: 48 kHz, AC3 Dolby Digital, 3/2 (L, C, R, l, r) + LFE ch, ~384 kbps
скриншот  скриншот  скриншот  скриншот  

Format : Matroska
Format version : Version 4 / Version 2
File size : 4.01 GiB
Duration : 1 h 44 min
Overall bit rate : 5 495 kb/s
Movie name : ELEKTRI4KA.UNIONGANG
Encoded date : UTC 2020-04-26 22:41:39
Writing application : mkvmerge v8.3.0 ('Over the Horizon') 64bit
Writing library : libebml v1.3.1 + libmatroska v1.4.2

Video
ID : 1
Format : AVC
Format/Info : Advanced Video Codec
Format profile : High@L4
Format settings, CABAC : Yes
Format settings, Reference frames : 4 frames
Codec ID : V_MPEG4/ISO/AVC
Duration : 1 h 44 min
Bit rate : 5 121 kb/s
Width : 1 920 pixels
Height : 800 pixels
Display aspect ratio : 2.40:1
Frame rate mode : Constant
Frame rate : 24.000 FPS
Color space : YUV
Chroma subsampling : 4:2:0
Bit depth : 8 bits
Scan type : Progressive
Bits/(Pixel*Frame) : 0.139
Stream size : 3.73 GiB (93%)
Writing library : x264 core 148
Encoding settings : cabac=1 / ref=3 / deblock=1:0:0 / analyse=0x3:0x113 / me=hex / subme=7 / psy=1 / psy_rd=1.00:0.00 / mixed_ref=1 / me_range=16 / chroma_me=1 / trellis=1 / 8x8dct=1 / cqm=0 / deadzone=21, 11 / fast_pskip=1 / chroma_qp_offset=-2 / threads=25 / lookahead_threads=4 / sliced_threads=0 / nr=0 / decimate=1 / interlaced=0 / bluray_compat=0 / constrained_intra=0 / bframes=6 / b_pyramid=2 / b_adapt=1 / b_bias=0 / direct=1 / weightb=1 / open_gop=0 / weightp=2 / keyint=48 / keyint_min=25 / scenecut=0 / intra_refresh=0 / rc_lookahead=40 / rc=2pass / mbtree=1 / bitrate=5120 / ratetol=1.0 / qcomp=0.60 / qpmin=0 / qpmax=69 / qpstep=4 / cplxblur=20.0 / qblur=0.5 / vbv_maxrate=7680 / vbv_bufsize=20480 / nal_hrd=none / filler=0 / ip_ratio=1.40 / aq=1:1.00
Default : Yes
Forced : No

Audio
ID : 2
Format : AC-3
Format/Info : Audio Coding 3
Mode extension : CM (complete main)
Format settings, Endianness : Big
Codec ID : A_AC3
Duration : 1 h 44 min
Bit rate mode : Constant
Bit rate : 384 kb/s
Channel(s) : 6 channels
Channel positions : Front: L C R, Side: L R, LFE
Sampling rate : 48.0 kHz
Frame rate : 31.250 FPS (1536 spf)
Bit depth : 16 bits
Compression mode : Lossy
Stream size : 287 MiB (7%)
Title : iTunes
Language : Russian
Default : Yes
Forced : No

Menu
00:00:00.000 : en:Глава 1
00:08:01.916 : en:Глава 2
00:16:22.249 : en:Глава 3
00:24:29.789 : en:Глава 4
00:32:31.622 : en:Глава 5
00:40:34.038 : en:Глава 6
00:48:46.079 : en:Глава 7
00:57:10.829 : en:Глава 8
01:05:21.245 : en:Глава 9
01:13:33.910 : en:Глава 10
01:21:54.910 : en:Глава 11
01:30:45.535 : en:Глава 12
01:37:40.535 : en:Глава 13

piratbit.pw



Скачать Калашников через торрент https://i1.imageban.ru/out/2020/04/27/eacd05d6885330d1f92b9ad27a825538.png Скачать фильм Калашников через торрент бесплантно в хорошем качестве Описание: Калашников. Все знают эту фамилию, но не все знают, какой долгий и тернистый путь прошел парень-самоучка, чтобы в 28 создать ... 9.2 10 53
Info! Золотая раздача, скачанное не засчитывается.
Торрент: Зарегистрирован [2020-04-27 01:28] · скачан: 599 раз
Статус: √ проверено
Размер: 4.01 GB
Как cкачать? Как скачать Калашников через торрент | qTorrent

% Раздел Тема Автор DL S | L
Наши новые фильмы 2018-2019 [ 1.46 GB ] Калашников [2020 биография история WEB-DLRip-AVC] bober100 Скачать
7 | 0
Наши новые фильмы 2018-2019 [ 2.18 GB ] Калашников [2020 биография история WEB-DLRip-AVC] bober100 Скачать
4 | 0
Наши новые фильмы 2018-2019 [ 746 MB ] Калашников [2020 биография история WEB-DLRip] bober100 Скачать
2 | 0
Наши фильмы (HD, WEB-DL 720p, 1080p) [ 2.15 GB ] Калашников [2020 биография история WEB-DL 720p] bober100 Скачать
2 | 0
Наши новые фильмы 2018-2019 [ 1.46 GB ] Калашников [2020 биография история WEB-DLRip] bober100 Скачать
3 | 0
Клипы [ 149 MB ] Анна Калашникова - По любви [клип] [2019 Поп WEBRip 1080p] bober100 Скачать
1 | 0
Клипы [ 111 MB ] Анна Калашникова - Жара [клип] [2019 Поп WEBRip 1080p] bober100 Скачать
1 | 0


Последний раз редактировалось: bober100 (2020-04-27 01:32), всего редактировалось 2 раз(а)

28-11-2019 20:33  

Отключить всю рекламу на сайте

08-04-2020 19:28 Калашников Скачать торрент  

Брехняpiratbit.pw



08-04-2020 19:38 Калашников Скачать торрент  

Хуго Шмайссер Sturmgewehr 44piratbit.pw



09-04-2020 04:23 Калашников Скачать торрент  

layma2 писал(а):

Хуго Шмайссер Sturmgewehr 44

Вот что делает безграмотность!piratbit.pw



09-04-2020 17:38 Калашников Скачать торрент  

БОГАТЫРЬ писал(а):

layma2 писал(а):

Хуго Шмайссер Sturmgewehr 44

Вот что делает безграмотность!

Ну да, скажи он сам его придумал? хахаха Немцы помогли и ракеты строить и оружие. Ведь их забрали и в СССР и в Америку, и прочие страны поселили их.piratbit.pw



10-04-2020 19:50 Калашников Скачать торрент  

layma2 писал(а):

Хуго Шмайссер Sturmgewehr 44

Еще одна жертва ...........И ведь что либо объяснять нет смысла.piratbit.pw



10-04-2020 23:47 Калашников Скачать торрент  

_PsiX_ писал(а):

layma2 писал(а):

Хуго Шмайссер Sturmgewehr 44

Еще одна жертва ...........И ведь что либо объяснять нет смысла.

Имя им-соросята. piratbit.pw



12-04-2020 11:08 Калашников Скачать торрент  

tirion stark писал(а):

БОГАТЫРЬ писал(а):

layma2 писал(а):

Хуго Шмайссер Sturmgewehr 44

Вот что делает безграмотность!

Ну да, скажи он сам его придумал? хахаха Немцы помогли и ракеты строить и оружие. Ведь их забрали и в СССР и в Америку, и прочие страны поселили их.

Да, он не один его разработал, но ни одного немца в разработке не было. В фильме этого не показали и вообще всё как то скомкано получилось, лучше бы сериал сняли и показали всё, что хотели.

П.С. Учим матчасть обоих автоматов и всё станет понятно.piratbit.pw



27-04-2020 14:27 Калашников Скачать торрент  

subota1980 писал(а):

Брехня

Зато главное оружие пропагандонов. И ведь кто то на нее до сих пор ведется...)piratbit.pw



27-04-2020 17:10 Калашников Скачать торрент  

layma2 писал(а):

Хуго Шмайссер Sturmgewehr 44

В век интернета попадаются такие безграмотные овощи, блеск!piratbit.pw



    Дорогой пользователь! Огромная просьба, поблагодарите релизера, оцените раздачу и оставьте свои комментарий, если Вы скачали Калашников через торрент бесплатно! Внесите свою лепту в развитие PiratBit!
    Комментировать посты могут только пользователи прошедшие не сложную регистрацию
    Показать сообщения:    

    Калашников через торрент
    Скачать бесплатно Калашников
    Калашников скачать торрент
    Калашников смотреть онлайн
    Cкачать фильм Калашников бесплатно
    Калашников скачать торрент в хорошем качестве
    Калашников смотреть онлайн бесплатно в хорошем качестве


    Вы не можете начинать темы
    Вы не можете отвечать на сообщения
    Вы не можете редактировать свои сообщения
    Вы не можете удалять свои сообщения
    Вы не можете голосовать в опросах
    Вы не можете прикреплять файлы к сообщениям
    Вы можете скачивать файлы