Ссылка на приватное зеркало нашего сайта всего за 1$. Внимание количество ограничено!!!

2 сезон

iTunes

iTunes

1

iTunes

iTunes

iTunes

WEBRip

iTunes

30
pack

Вам бонус

ВАЖНО

!!Акция!!

Alien_RageХит недели

RePack

Horizon Zero Dawn

ИГРА 18+

pack

RePack

jed

!!Акция!!

Alien_Rage

RePack

fifa19

RePack

Assassins Creed: Odyssey

RePack

NEED FOR SPEED™ PAYBACK

4 сезон

9 сезон

Бесстыжие 9 сезон

Все сериалы

все сериалы на PB.wtf

RePack

FAR CRY 5
  

Зима (Сергей Черников) [2020, Драма, WEB-DL 720p] [iTunes] piratbit.pw

Зима через торрент piratbit.pw

Раздают: 1 [ 0 KB/s ]
Размер: 2.42 GB | Добавлен: 6 мес. назад | Торрент скачан:171 раз
Скачать  

27-03-2020 15:38 Зима Скачать торрент  

Зима
Год выпуска: 2020
Страна: Россия
Жанр: Драма
Продолжительность: 01:19:02
Перевод: Не требуется | iTunes
Субтитры: отсутствуют

Режиссер: Сергей Черников

rating

В ролях: Игорь Петренко, Александр Петров, Тимофей Трибунцев, Никита Павленко, Михаил Жигалов, Дмитрий Куличков, Александр Аблязов, Никита Салопин, Алексей Демидов, Никита Абдулов

Описание: По пути домой в чужом городе Александр со своим отцом получают тяжелые ранения от пьяных малолетних преступников. Отец погибает, а Александр становится опасным свидетелем, которого необходимо устранить. Он вынужден сам начать преследование и очень скоро из жертвы превращается в хладнокровного охотника.

Качество: WEB-DL 720p
Формат: MKV

Видео: MPEG-4 AVC, 4000 Кбит/с, 1280x536
Аудио: 48 kHz, AC3 Dolby Digital, 3/2 (L,C,R,l,r) + LFE ch, ~384 kbps | русский
скриншот  скриншот  скриншот  скриншот  

Общее
Уникальный идентификатор : 10195880504514481050793725288851185287 (0x7ABA7B86399C2E3B6B9624FE1601E87)
Полное имя : C:\Зима (2019) WEB-DL 720p (Лиц).mkv
Формат : Matroska
Версия формата : Version 4
Размер файла : 2,42 Гбайт
Продолжительность : 1 ч. 19 м.
Общий поток : 4386 Кбит/сек
Название фильма : ELEKTRI4KA.UNIONGANG
Дата кодирования : UTC 2020-03-26T00:49:38Z
Программа кодирования : HandBrake 1.1.2 2018090500
Библиотека кодирования : Lavf57.7.2

Видео
Идентификатор : 1
Формат : AVC
Формат/Информация : Advanced Video Codec
Профиль формата : High@L4
Настройки формата : CABAC / 5 Ref Frames
Параметр CABAC формата : Да
Параметр RefFrames формата : 5 кадров
Идентификатор кодека : V_MPEG4/ISO/AVC
Продолжительность : 1 ч. 19 м.
Битрейт : 4000 Кбит/сек
Ширина : 1280 пикселей
Высота : 536 пикселей
Соотношение сторон : 2,40:1
Режим частоты кадров : Постоянный
Частота кадров : 24,000 кадра/сек
Цветовое пространство : YUV
Субдискретизация насыщенности : 4:2:0
Битовая глубина : 8 бит
Тип развёртки : Прогрессивная
Бит/(Пиксели*Кадры) : 0.243
Размер потока : 2,16 Гбайт (89%)
Библиотека кодирования : x264 core 155 r2901 7d0ff22
Настройки программы : cabac=1 / ref=5 / deblock=1:0:0 / analyse=0x3:0x113 / me=hex / subme=8 / psy=1 / psy_rd=1.00:0.00 / mixed_ref=1 / me_range=16 / chroma_me=1 / trellis=2 / 8x8dct=1 / cqm=0 / deadzone=21,11 / fast_pskip=1 / chroma_qp_offset=-2 / threads=17 / lookahead_threads=2 / sliced_threads=0 / nr=0 / decimate=1 / interlaced=0 / bluray_compat=0 / constrained_intra=0 / bframes=3 / b_pyramid=2 / b_adapt=1 / b_bias=0 / direct=3 / weightb=1 / open_gop=0 / weightp=2 / keyint=240 / keyint_min=24 / scenecut=40 / intra_refresh=0 / rc_lookahead=50 / rc=2pass / mbtree=1 / bitrate=4000 / ratetol=1.0 / qcomp=0.60 / qpmin=0 / qpmax=69 / qpstep=4 / cplxblur=20.0 / qblur=0.5 / vbv_maxrate=25000 / vbv_bufsize=31250 / nal_hrd=none / filler=0 / ip_ratio=1.40 / aq=1:1.00
Default : Да
Forced : Нет
Цветовой диапазон : Limited
Основные цвета : BT.709
Характеристики трансфера : BT.709
Коэффициенты матрицы : BT.709

Аудио
Идентификатор : 2
Формат : AC-3
Формат/Информация : Audio Coding 3
Коммерческое название : Dolby Digital
Идентификатор кодека : A_AC3
Продолжительность : 1 ч. 19 м.
Вид битрейта : Постоянный
Битрейт : 384 Кбит/сек
Каналы : 6 каналов
ChannelLayout : L R C LFE Ls Rs
Частота : 48,0 КГц
Частота кадров : 31,250 кадров/сек (1536 SPF)
Битовая глубина : 16 бит
Метод сжатия : С потерями
Размер потока : 217 Мбайт (9%)
Заголовок : Surround
Язык : Russian
ServiceKind/String : Complete Main
Default : Да
Forced : Нет

piratbit.pw



Скачать Зима через торрент https://i6.imageban.ru/out/2020/03/25/c8528dcca646b86f7f6e4745e5d11f36.png Скачать фильм Зима через торрент бесплантно в хорошем качестве Описание: По пути домой в чужом городе Александр со своим отцом получают тяжелые ранения от пьяных малолетних преступников. Отец погибает, ... 8.5 10 6
Торрент: Зарегистрирован [2020-03-27 15:38] · скачан: 171 раз
Статус: √ проверено
Размер: 2.42 GB
Как cкачать? Как скачать Зима через торрент | qTorrent

% Раздел Тема Автор DL S | L
S.T.A.L.K.E.R. [ 3.37 GB ] S.T.A.L.K.E.R. Зов Припяти - Дезертир Зима v.1.7 2011 [ПираткаRUAction Shooter] Gopin Скачать
3 | 0
Фильмы 2016 [DVDrip, WEB-DLRip, HDrip] (DUB, MVO) [ 1.46 GB ] Свадебный угар / Mike and Dave Need Wedding Dates [2016 WEB-DLRip] killermax2013 Скачать
1 | 0
Фильмы 2016 [DVDrip, WEB-DLRip, HDrip] (DUB, MVO) [ 2.18 GB ] Свадебный угар / Mike and Dave Need Wedding Dates [2016 BDRip-AVC] DUB bober100 Скачать
1 | 0
Фантастика [ 1007 MB ] Барбара Джоан Хэмбли - Мать Зимы [Надежда Колганова 2016 192 kbps MP3] bober100 Скачать
1 | 0
Фильмы 2016 [DVDrip, WEB-DLRip, HDrip] (DUB, MVO) [ 1.46 GB ] Свадебный угар / Mike and Dave Need Wedding Dates [2016 BDRip] - [] Twi7ter Скачать
2 | 0
Фильмы (Blu-ray, BD-Remux, HDDVD) [ 41.98 GB ] Свадебный угар / Mike and Dave Need Wedding Dates [2016 Мело Blu-ray] Russian Mafia Скачать
1 | 0
Фильмы 2016 [DVDrip, WEB-DLRip, HDrip] (DUB, MVO) [ 747 MB ] Свадебный угар / Mike and Dave Need Wedding Dates [2016 WEB-DLRip / ] неАлексей Скачать
1 | 0


Последний раз редактировалось: bober100 (2020-03-27 17:48), всего редактировалось 1 раз

28-11-2019 20:33  

Отключить всю рекламу на сайте

27-03-2020 17:30 Зима Скачать торрент  

останови рус кино,умаляю =))piratbit.pw



    Дорогой пользователь! Огромная просьба, поблагодарите релизера, оцените раздачу и оставьте свои комментарий, если Вы скачали Зима через торрент бесплатно! Внесите свою лепту в развитие PiratBit!
    Комментировать посты могут только пользователи прошедшие не сложную регистрацию
    Показать сообщения:    

    Зима через торрент
    Скачать бесплатно Зима
    Зима скачать торрент
    Зима смотреть онлайн
    Cкачать фильм Зима бесплатно
    Зима скачать торрент в хорошем качестве
    Зима смотреть онлайн бесплатно в хорошем качестве


    Вы не можете начинать темы
    Вы не можете отвечать на сообщения
    Вы не можете редактировать свои сообщения
    Вы не можете удалять свои сообщения
    Вы не можете голосовать в опросах
    Вы не можете прикреплять файлы к сообщениям
    Вы можете скачивать файлы