Ссылка на приватное зеркало всего за 1$. Внимание количество ограничено!!!

iTunes

iTunes

iTunes

1

iTunes

iTunes

iTunes

iTunes

iTunes

30
pack

Новость дня

ВАЖНО

!!Акция!!

Alien_RageХит недели

RePack

Resident Evil 21

ИГРА 18+

pack

RePack

jed

!!Акция!!

Alien_Rage

RePack

fifa19

RePack

Assassins Creed: Odyssey

RePack

NEED FOR SPEED™ PAYBACK

4 сезон

9 сезон

Бесстыжие 9 сезон

Все сериалы

все сериалы на PB.wtf

RePack

FAR CRY 5
  

Ночь в Роксбери / A Night at the Roxbury (Джон Фортенберри, Эми Хекерлинг) [1998, комедия, мелодрама, музыка, BDRip-AVC by msltel] 3 x MVO, DVO, 2 x AVO piratbit.pw

Ночь в Роксбери через торрент piratbit.pw

Раздают: 3 [ 1 KB/s ]
Размер: 2.77 GB | Добавлен: 5 д. назад | Торрент скачан:15 раз
Скачать  

27-03-2020 08:52 Ночь в Роксбери Скачать торрент  

Название: Ночь в Роксбери
Оригинальное название: A Night at the Roxbury
Год выпуска: 1998
Страна: США
Жанр: комедия, мелодрама, музыка
Продолжительность: 01:21:57
Перевод: профессиональный многоголосый, профессиональный двухголосый, авторский
Режиссер: Джон Фортенберри, Эми Хекерлинг
В ролях: Уилл Феррелл, Крис Кэттэн, Рэкуэл Гарднер, Вивека Полин, Полетт Брэкстон, Майкл М. Хортон, Дженнифер Кулидж, Майкл Кларк Дункан, Ричард Грико, Лони Андерсон, Дэн Хедайя, Джина Мари, Молли Шеннон, Локлин Манро, Кристен Далтон, Колин Куинн, Гиги Райс, Элиза Донован, Дебора Келлнер, Робин Кригер

О фильме: Они носят неотразимые костюмы и золотые цепи. У них модные причёски и стильные бакенбарды. Их среда обитания — ночные клубы. Стимул их жизни — красивые женщины. Их самая заветная мечта — попасть в престижный и недоступный клуб «Роксбери»... Комедия Джона Фортенберри снята по мотивам скетчей «The Roxbury Guys» из программы «Saturday Night Live».



Качество: BDRip-AVC
Формат: MKV
Видео: MPEG-4 AVC, 2667 Kбит/с, 1024x576, 23.976 Кадр/с
Аудио 1: русский, AC3, 384 kbps, 6 ch, 48 kHz [закадровый многоголосый, SDI Media v1.0]
Аудио 2: русский, AC3, 192 kbps, 2 ch, 48 kHz [закадровый многоголосый, SDI Media v2.0]
Аудио 3: русский, AC3, 192 kbps, 2 ch, 48 kHz [закадровый многоголосый, CTC]
Аудио 4: русский, AC3, 192 kbps, 2 ch, 48 kHz [закадровый двухголосый, R9]
Аудио 5: русский, AC3, 384 kbps, 6 ch, 48 kHz [авторский, Антон Алексеев]
Аудио 6: русский, AC3, 384 kbps, 6 ch, 48 kHz [авторский, Юрий Живов]
Аудио 7: английский, AC3, 448 kbps, 6 ch, 48 kHz [оригинал]
Субтитры 1: русские
Субтитры 2: английские
Главы/чаптеры
Общее
Уникальный идентификатор : 229965053123506840213108763845268938142 (0xAD01A87F9E8BF034B4E1FF55CEDD1D9E)
Полное имя : D:\Video\Ночь в Роксбери.1998.BDRip-AVC by msltel.mkv
Формат : Matroska
Версия формата : Version 4
Размер файла : 2,77 Гбайт
Продолжительность : 1 ч. 21 м.
Общий поток : 4846 Кбит/сек
Название фильма : Rip by msltel
Дата кодирования : UTC 2020-03-27 06:14:00
Программа кодирования : mkvmerge v8.2.0 ('World of Adventure') 64bit
Библиотека кодирования : libebml v1.3.1 + libmatroska v1.4.2

Видео
Идентификатор : 1
Формат : AVC
Формат/Информация : Advanced Video Codec
Профиль формата : High@L4.1
Настройки формата : CABAC / 12 Ref Frames
Параметр CABAC формата : Да
Параметр RefFrames формата : 12 кадров
Идентификатор кодека : V_MPEG4/ISO/AVC
Продолжительность : 1 ч. 21 м.
Битрейт : 2667 Кбит/сек
Ширина : 1024 пикселя
Высота : 576 пикселей
Соотношение сторон : 16:9
Режим частоты кадров : Постоянный
Частота кадров : 23,976 (24000/1001) кадра/сек
Цветовое пространство : YUV
Субдискретизация насыщенности : 4:2:0
Битовая глубина : 8 бит
Тип развёртки : Прогрессивная
Бит/(Пиксели*Кадры) : 0.189
Размер потока : 1,53 Гбайт (55%)
Библиотека кодирования : x264 core 159 r2991 1771b55
Настройки программы : cabac=1 / ref=12 / deblock=1:-2:-2 / analyse=0x3:0x113 / me=umh / subme=11 / psy=1 / psy_rd=1.00:0.15 / mixed_ref=1 / me_range=32 / chroma_me=1 / trellis=2 / 8x8dct=1 / cqm=0 / deadzone=21,11 / fast_pskip=0 / chroma_qp_offset=-3 / threads=6 / lookahead_threads=1 / sliced_threads=0 / nr=0 / decimate=1 / interlaced=0 / bluray_compat=0 / constrained_intra=0 / bframes=7 / b_pyramid=2 / b_adapt=2 / b_bias=0 / direct=1 / weightb=1 / open_gop=0 / weightp=2 / keyint=230 / keyint_min=23 / scenecut=40 / intra_refresh=0 / rc_lookahead=40 / rc=crf / mbtree=1 / crf=19.0 / qcomp=0.60 / qpmin=0 / qpmax=69 / qpstep=4 / vbv_maxrate=50000 / vbv_bufsize=62500 / crf_max=0.0 / nal_hrd=none / filler=0 / ip_ratio=1.40 / aq=1:1.00
Язык : English
Default : Да
Forced : Нет

Аудио #1
Идентификатор : 2
Формат : AC-3
Формат/Информация : Audio Coding 3
Коммерческое название : Dolby Digital
Идентификатор кодека : A_AC3
Продолжительность : 1 ч. 21 м.
Вид битрейта : Постоянный
Битрейт : 384 Кбит/сек
Каналы : 6 каналов
ChannelLayout : L R C LFE Ls Rs
Частота : 48,0 КГц
Частота кадров : 31,250 кадров/сек (1536 SPF)
Метод сжатия : С потерями
Размер потока : 225 Мбайт (8%)
Заголовок : MVO SDI Media v1.0
Язык : Russian
ServiceKind/String : Complete Main
Default : Да
Forced : Нет

Аудио #2
Идентификатор : 3
Формат : AC-3
Формат/Информация : Audio Coding 3
Коммерческое название : Dolby Digital
Идентификатор кодека : A_AC3
Продолжительность : 1 ч. 21 м.
Вид битрейта : Постоянный
Битрейт : 192 Кбит/сек
Каналы : 2 канала
ChannelLayout : L R
Частота : 48,0 КГц
Частота кадров : 31,250 кадров/сек (1536 SPF)
Метод сжатия : С потерями
Размер потока : 113 Мбайт (4%)
Заголовок : MVO SDI Media v2.0
Язык : Russian
ServiceKind/String : Complete Main
Default : Нет
Forced : Нет

Аудио #3
Идентификатор : 4
Формат : AC-3
Формат/Информация : Audio Coding 3
Коммерческое название : Dolby Digital
Идентификатор кодека : A_AC3
Продолжительность : 1 ч. 21 м.
Вид битрейта : Постоянный
Битрейт : 192 Кбит/сек
Каналы : 2 канала
ChannelLayout : L R
Частота : 48,0 КГц
Частота кадров : 31,250 кадров/сек (1536 SPF)
Метод сжатия : С потерями
Размер потока : 113 Мбайт (4%)
Заголовок : MVO CTC
Язык : Russian
ServiceKind/String : Complete Main
Default : Нет
Forced : Нет

Аудио #4
Идентификатор : 5
Формат : AC-3
Формат/Информация : Audio Coding 3
Коммерческое название : Dolby Digital
Идентификатор кодека : A_AC3
Продолжительность : 1 ч. 21 м.
Вид битрейта : Постоянный
Битрейт : 192 Кбит/сек
Каналы : 2 канала
ChannelLayout : L R
Частота : 48,0 КГц
Частота кадров : 31,250 кадров/сек (1536 SPF)
Метод сжатия : С потерями
Размер потока : 113 Мбайт (4%)
Заголовок : DVO R9
Язык : Russian
ServiceKind/String : Complete Main
Default : Нет
Forced : Нет

Аудио #5
Идентификатор : 6
Формат : AC-3
Формат/Информация : Audio Coding 3
Коммерческое название : Dolby Digital
Идентификатор кодека : A_AC3
Продолжительность : 1 ч. 21 м.
Вид битрейта : Постоянный
Битрейт : 384 Кбит/сек
Каналы : 6 каналов
ChannelLayout : L R C LFE Ls Rs
Частота : 48,0 КГц
Частота кадров : 31,250 кадров/сек (1536 SPF)
Метод сжатия : С потерями
Размер потока : 225 Мбайт (8%)
Заголовок : Антон Алексеев
Язык : Russian
ServiceKind/String : Complete Main
Default : Нет
Forced : Нет

Аудио #6
Идентификатор : 7
Формат : AC-3
Формат/Информация : Audio Coding 3
Коммерческое название : Dolby Digital
Идентификатор кодека : A_AC3
Продолжительность : 1 ч. 21 м.
Вид битрейта : Постоянный
Битрейт : 384 Кбит/сек
Каналы : 6 каналов
ChannelLayout : L R C LFE Ls Rs
Частота : 48,0 КГц
Частота кадров : 31,250 кадров/сек (1536 SPF)
Метод сжатия : С потерями
Размер потока : 225 Мбайт (8%)
Заголовок : Юрий Живов
Язык : Russian
ServiceKind/String : Complete Main
Default : Нет
Forced : Нет

Аудио #7
Идентификатор : 8
Формат : AC-3
Формат/Информация : Audio Coding 3
Коммерческое название : Dolby Digital
Идентификатор кодека : A_AC3
Продолжительность : 1 ч. 21 м.
Вид битрейта : Постоянный
Битрейт : 448 Кбит/сек
Каналы : 6 каналов
ChannelLayout : L R C LFE Ls Rs
Частота : 48,0 КГц
Частота кадров : 31,250 кадров/сек (1536 SPF)
Метод сжатия : С потерями
Размер потока : 263 Мбайт (9%)
Заголовок : original
Язык : English
ServiceKind/String : Complete Main
Default : Нет
Forced : Нет

Текст #1
Идентификатор : 9
Формат : UTF-8
Идентификатор кодека : S_TEXT/UTF8
Идентификатор кодека/Информация : UTF-8 Plain Text
Продолжительность : 1 ч. 17 м.
Битрейт : 126 бит/сек
ElementCount : 794
Размер потока : 71,7 Кбайт (0%)
Заголовок : русские
Язык : Russian
Default : Нет
Forced : Нет

Текст #2
Идентификатор : 10
Формат : UTF-8
Идентификатор кодека : S_TEXT/UTF8
Идентификатор кодека/Информация : UTF-8 Plain Text
Продолжительность : 1 ч. 16 м.
Битрейт : 57 бит/сек
ElementCount : 691
Размер потока : 32,1 Кбайт (0%)
Заголовок : английские
Язык : English
Default : Нет
Forced : Нет

Меню
00:00:00.000 : en:Chapter 1
01:21:56.578 : en:Chapter 2
piratbit.pw



Скачать Ночь в Роксбери через торрент https://b.radikal.ru/b43/2003/9c/69d0c29ddf84.jpg Скачать фильм Ночь в Роксбери через торрент бесплантно в хорошем качестве О фильме: Они носят неотразимые костюмы и золотые цепи. У них модные причёски и стильные бакенбарды. Их среда обитания — ночные клубы. ... 10 10 2
Торрент: Зарегистрирован [2020-03-27 08:52] · скачан: 15 раз
Статус: √ проверено
Размер: 2.77 GB
Как cкачать? Как скачать Ночь в Роксбери через торрент | qTorrent

% Раздел Тема Автор DL S | L
Фильмы [HD 720p, 1080p] (Хороший звук DUB, MVO) [ 9.58 GB ] Ночь в Роксбери / A Night at the Roxbury [1998 музыка BDRip 1080p by msltel] 3 x MVO DVO 2 x AVO msltel Скачать
4 | 0
Фильмы [HD 720p, 1080p] (Хороший звук DUB, MVO) [ 4.4 GB ] Ночь в Роксбери / A Night at the Roxbury [1998 музыка BDRip 720p by msltel] 3 x MVO DVO 2 x AVO msltel Скачать
5 | 0


Последний раз редактировалось: msltel (2020-03-27 13:05), всего редактировалось 1 раз

28-11-2019 20:33  

Отключить всю рекламу на сайте

27-03-2020 08:55 Ночь в Роксбери Скачать торрент  

вообще то год фильма 1998. а не 1989piratbit.pw



    Дорогой пользователь! Огромная просьба, поблагодарите релизера, оцените раздачу и оставьте свои комментарий, если Вы скачали Ночь в Роксбери через торрент бесплатно! Внесите свою лепту в развитие PiratBit!
    Комментировать посты могут только пользователи прошедшие не сложную регистрацию
    Показать сообщения:    

    Ночь в Роксбери через торрент
    Скачать бесплатно Ночь в Роксбери
    Ночь в Роксбери скачать торрент
    Ночь в Роксбери смотреть онлайн
    Cкачать фильм Ночь в Роксбери бесплатно
    Ночь в Роксбери скачать торрент в хорошем качестве
    Ночь в Роксбери смотреть онлайн бесплатно в хорошем качестве


    Вы не можете начинать темы
    Вы не можете отвечать на сообщения
    Вы не можете редактировать свои сообщения
    Вы не можете удалять свои сообщения
    Вы не можете голосовать в опросах
    Вы не можете прикреплять файлы к сообщениям
    Вы можете скачивать файлы