Ссылка на приватное зеркало всего за 1$. Внимание количество ограничено!!!

iTunes

iTunes

iTunes

1

iTunes

iTunes

iTunes

iTunes

iTunes

30
pack

Новость дня

ВАЖНО

!!Акция!!

Alien_RageХит недели

RePack

Resident Evil 21

ИГРА 18+

pack

RePack

jed

!!Акция!!

Alien_Rage

RePack

fifa19

RePack

Assassins Creed: Odyssey

RePack

NEED FOR SPEED™ PAYBACK

4 сезон

9 сезон

Бесстыжие 9 сезон

Все сериалы

все сериалы на PB.wtf

RePack

FAR CRY 5
  

Озарк / Ozark / Сезон: 3 / Серии: 1-10 из 10 (Джейсон Бейтман, Эндрю Бернштейн, Эллен Кёрас) [2020, триллер, драма, криминал, WEB-DL 1080p] DUB [Пифагор / Netflix] piratbit.pw

Озарк через торрент piratbit.pw

Раздают: 6 [ 422 KB/s ] Качают: 3 [ 0 KB/s ]
Размер: 33.77 GB | Добавлен: 7 д. назад | Торрент скачан:84 раза
Скачать  

27-03-2020 07:56 Озарк Скачать торрент  

Озарк | Ozark
Год выпуска: 2020
Страна: США
Студия: Media Rights Capital, Zero Gravity Management
Жанр: триллер, драма, криминал
Продолжительность: ~ 00:59:00 серия
Перевод: Дублированный | Пифагор по заказу Netflix
Субтитры: Русские (Forced, Full), английские (Forced, SDH), немецкие, испанские, французкие, итальянские, португальские

Режиссер: Джейсон Бейтман, Эндрю Бернштейн, Эллен Кёрас

rating


В ролях: Джейсон Бейтман (Martin «Marty» Byrde), Лора Линни (Wendy Byrde), София Хьюблиц (Charlotte Byrde), Скайлар Гертнер (Jonah Byrde), Джулия Гарнер (Ruth Langmore), Джордана Спиро (Rachel), Джейсон Батлер Харнер (Roy Petty), Эсай Моралес (Del), Питер Муллан (Jacob Snell), Лиза Эмери (Darlene Snell), Харрис Юлин (Buddy Dieker), Чарли Тахэн (Wyatt)

Описание: Финансовый консультант Марти Бёрд вместе с женой Вэнди и остальными членами семьи вынужден переехать из престижного предместья Чикаго в курортный городок Озарк штата Миссури. К неожиданному переезду главного героя вынудили крупные долги, и на новом месте он надеется поправить своё финансовое положение.

Качество: WEB-DL 1080p
Формат: MKV

Видео: 1920x1080 at 23.976 fps, x264, ~7100 kbps avg
Аудио#1 Russian: 48 kHz, E-AC3, 3/2 (L,C,R,l,r) + LFE ch, ~640 kbps avg |Дубляж, Пифагор по заказу Netflix|
Аудио#2 English: 48 kHz, E-AC3, 3/2 (L,C,R,l,r) + LFE ch, ~640 kbps avg
скриншот  скриншот  скриншот  скриншот  

Общее
Уникальный идентификатор : 204684244556118275720328563214052028415 (0x99FCC0671ECBA2B06AB48BE2A0F4EFFF)
Полное имя : C:Ozark.S03.1080p.NF.WEB-DL.DDP5.1.x264-EniaHD\Ozark.S03E01.1080p.NF.WEB-DL.DDP5.1.x264-EniaHD.mkv
Формат : Matroska
Версия формата : Version 4
Размер файла : 3,56 Гбайт
Продолжительность : 1 ч. 0 м.
Режим общего битрейта : Переменный
Общий поток : 8396 Кбит/сек
Название фильма : Ozark S03E01 - EniaHD
Дата кодирования : UTC 2020-03-27 07:24:15
Программа кодирования : mkvmerge v44.0.0 ('Domino') 64-bit
Библиотека кодирования : libebml v1.3.10 + libmatroska v1.5.2

Видео
Идентификатор : 1
Формат : AVC
Формат/Информация : Advanced Video Codec
Профиль формата : High@L4
Настройки формата : CABAC / 4 Ref Frames
Параметр CABAC формата : Да
Параметр RefFrames формата : 4 кадра
Идентификатор кодека : V_MPEG4/ISO/AVC
Продолжительность : 1 ч. 0 м.
Вид битрейта : Переменный
Битрейт : 7100 Кбит/сек
Максимальный битрейт : 20,0 Мбит/сек
Ширина : 1920 пикселей
Высота : 1080 пикселей
Соотношение сторон : 16:9
Режим частоты кадров : Постоянный
Частота кадров : 23,976 (24000/1001) кадра/сек
Цветовое пространство : YUV
Субдискретизация насыщенности : 4:2:0
Битовая глубина : 8 бит
Тип развёртки : Прогрессивная
Бит/(Пиксели*Кадры) : 0.140
Размер потока : 2,95 Гбайт (83%)
Библиотека кодирования : x264 core 148 r2717 0d2410d
Настройки программы : cabac=1 / ref=4 / deblock=1:0:0 / analyse=0x3:0x111 / me=umh / subme=10 / psy=1 / psy_rd=1.00:0.00 / mixed_ref=1 / me_range=120 / chroma_me=1 / trellis=2 / 8x8dct=1 / cqm=0 / deadzone=21,11 / fast_pskip=1 / chroma_qp_offset=-2 / threads=8 / lookahead_threads=2 / sliced_threads=0 / nr=0 / decimate=1 / interlaced=0 / bluray_compat=0 / stitchable=1 / constrained_intra=0 / bframes=16 / b_pyramid=2 / b_adapt=2 / b_bias=0 / direct=3 / weightb=1 / open_gop=0 / weightp=2 / keyint=240 / keyint_min=121 / scenecut=0 / intra_refresh=0 / rc_lookahead=240 / rc=crf / mbtree=1 / crf=20.0 / qcomp=0.50 / qpmin=6 / qpmax=51 / qpstep=4 / vbv_maxrate=20000 / vbv_bufsize=25000 / crf_max=0.0 / nal_hrd=vbr / filler=0 / ip_ratio=1.40 / aq=1:0.80
Default : Да
Forced : Нет

Аудио #1
Идентификатор : 2
Формат : E-AC-3
Формат/Информация : Enhanced AC-3
Коммерческое название : Dolby Digital Plus
Идентификатор кодека : A_EAC3
Продолжительность : 1 ч. 0 м.
Вид битрейта : Постоянный
Битрейт : 640 Кбит/сек
Каналы : 6 каналов
ChannelLayout : L R C LFE Ls Rs
Частота : 48,0 КГц
Частота кадров : 31,250 кадров/сек (1536 SPF)
Метод сжатия : С потерями
Размер потока : 278 Мбайт (8%)
Язык : Russian
ServiceKind/String : Complete Main
Default : Да
Forced : Нет

Аудио #2
Идентификатор : 3
Формат : E-AC-3
Формат/Информация : Enhanced AC-3
Коммерческое название : Dolby Digital Plus
Идентификатор кодека : A_EAC3
Продолжительность : 1 ч. 0 м.
Вид битрейта : Постоянный
Битрейт : 640 Кбит/сек
Каналы : 6 каналов
ChannelLayout : L R C LFE Ls Rs
Частота : 48,0 КГц
Частота кадров : 31,250 кадров/сек (1536 SPF)
Метод сжатия : С потерями
Размер потока : 278 Мбайт (8%)
Язык : English
ServiceKind/String : Complete Main
Default : Нет
Forced : Нет

Текст #1
Идентификатор : 4
Формат : UTF-8
Идентификатор кодека : S_TEXT/UTF8
Идентификатор кодека/Информация : UTF-8 Plain Text
Заголовок : Forced
Язык : Russian
Default : Да
Forced : Нет

Текст #2
Идентификатор : 5
Формат : UTF-8
Идентификатор кодека : S_TEXT/UTF8
Идентификатор кодека/Информация : UTF-8 Plain Text
Язык : Russian
Default : Нет
Forced : Нет

Текст #3
Идентификатор : 6
Формат : UTF-8
Идентификатор кодека : S_TEXT/UTF8
Идентификатор кодека/Информация : UTF-8 Plain Text
Заголовок : Forced
Язык : English
Default : Нет
Forced : Нет

Текст #4
Идентификатор : 7
Формат : UTF-8
Идентификатор кодека : S_TEXT/UTF8
Идентификатор кодека/Информация : UTF-8 Plain Text
Заголовок : SDH
Язык : English
Default : Нет
Forced : Нет

Текст #5
Идентификатор : 8
Формат : UTF-8
Идентификатор кодека : S_TEXT/UTF8
Идентификатор кодека/Информация : UTF-8 Plain Text
Язык : German
Default : Нет
Forced : Нет

Текст #6
Идентификатор : 9
Формат : UTF-8
Идентификатор кодека : S_TEXT/UTF8
Идентификатор кодека/Информация : UTF-8 Plain Text
Язык : Spanish
Default : Нет
Forced : Нет

Текст #7
Идентификатор : 10
Формат : UTF-8
Идентификатор кодека : S_TEXT/UTF8
Идентификатор кодека/Информация : UTF-8 Plain Text
Язык : French
Default : Нет
Forced : Нет

Текст #8
Идентификатор : 11
Формат : UTF-8
Идентификатор кодека : S_TEXT/UTF8
Идентификатор кодека/Информация : UTF-8 Plain Text
Язык : Italian
Default : Нет
Forced : Нет

Текст #9
Идентификатор : 12
Формат : UTF-8
Идентификатор кодека : S_TEXT/UTF8
Идентификатор кодека/Информация : UTF-8 Plain Text
Заголовок : Brazilian
Язык : Portuguese
Default : Нет
Forced : Нет

piratbit.pw



Скачать Озарк через торрент https://i111.fastpic.ru/big/2020/0327/5c/073e96129a2463ceb645a8b17da38a5c.jpg Скачать фильм Озарк через торрент бесплантно в хорошем качестве Описание: Финансовый консультант Марти Бёрд вместе с женой Вэнди и остальными членами семьи вынужден переехать из престижного предместья ... 10 10 5
Info! Золотая раздача, скачанное не засчитывается.
Торрент: Зарегистрирован [2020-03-27 07:56] · скачан: 84 раз
Статус: √ проверено
Размер: 33.77 GB
Как cкачать? Как скачать Озарк через торрент | qTorrent

% Раздел Тема Автор DL S | L
Зарубежные сериалы [ 868 MB ] Озарк / Ozark / Сезон: 3 / Серии: 1- из 10 [2020 WEBRip] MVO [LostFilm] bober100 Скачать
2 | 0
Зарубежные сериалы [ 3.45 GB ] Озарк / Ozark / Сезон: 3 / Серии: 1- из 10 [2020 WEBRip 1080p] MVO [LostFilm] bober100 Скачать
5 | 0
Зарубежные сериалы [ 8.49 GB ] Озарк / Ozark / Сезон: 3 / Серии: 1-10 из 10 [2020 WEB-DLRip] DUB [Пифагор / Netflix] bober100 Скачать
11 | 2

28-11-2019 20:33  

Отключить всю рекламу на сайте

    Дорогой пользователь! Огромная просьба, поблагодарите релизера, оцените раздачу и оставьте свои комментарий, если Вы скачали Озарк через торрент бесплатно! Внесите свою лепту в развитие PiratBit!
    Комментировать посты могут только пользователи прошедшие не сложную регистрацию
    Показать сообщения:    

    Озарк через торрент
    Скачать бесплатно Озарк
    Озарк скачать торрент
    Озарк смотреть онлайн
    Cкачать фильм Озарк бесплатно
    Озарк скачать торрент в хорошем качестве
    Озарк смотреть онлайн бесплатно в хорошем качестве


    Вы не можете начинать темы
    Вы не можете отвечать на сообщения
    Вы не можете редактировать свои сообщения
    Вы не можете удалять свои сообщения
    Вы не можете голосовать в опросах
    Вы не можете прикреплять файлы к сообщениям
    Вы можете скачивать файлы