Ссылка на приватное зеркало всего за 1$. Внимание количество ограничено!!!

iTunes

iTunes

iTunes

1

iTunes

iTunes

iTunes

iTunes

iTunes

30
pack

Новость дня

ВАЖНО

!!Акция!!

Alien_RageХит недели

RePack

Resident Evil 21

ИГРА 18+

pack

RePack

jed

!!Акция!!

Alien_Rage

RePack

fifa19

RePack

Assassins Creed: Odyssey

RePack

NEED FOR SPEED™ PAYBACK

4 сезон

9 сезон

Бесстыжие 9 сезон

Все сериалы

все сериалы на PB.wtf

RePack

FAR CRY 5
  

Лорен / Laurin (Роберт Сигл) [1989, драма, ужасы, детектив, триллер, BDRip-AVC by msltel] AVO piratbit.pw

Лорен через торрент piratbit.pw

Раздают: 1 [ 0 KB/s ]
Размер: 2.37 GB | Добавлен: 5 д. назад | Торрент скачан:4 раза
Скачать  

27-03-2020 06:18 Лорен Скачать торрент  

Название: Лорен
Оригинальное название: Laurin
Год выпуска: 1989
Страна: Германия (ФРГ), Венгрия
Жанр: драма, ужасы, детектив, триллер
Продолжительность: 01:23:26
Перевод: авторский
Режиссер: Роберт Сигл
В ролях: Дора Синетар, Бриджитт Карнер, Карой Эперьеш, Хеди Темешши, Барнабаш Тот, Каталин Шир, Янош Держи, Золтан Гера, Ильдико Хамори

О фильме: Конец 19 века. В лесном замке недалеко от небольшого портового городка живёт 9-летняя Лорен со своей матерью Флорой, отцом и бабушкой Хельгой. Отец Лорен — моряк и должен на несколько месяцев покидать дом. Однажды Флора, провожая своего мужа до гавани, погибает при странных обстоятельствах. Это напоминает несчастный случай, но Лорен чувствует, что это не так и что-то зловещее скрыто в их доме...



Качество: BDRip-AVC
Формат: MKV
Видео: MPEG-4 AVC, 3686 Kбит/с, 1024x552, 24 Кадр/с
Аудио 1: русский, AC3, 192 kbps, 2 ch, 48 kHz [авторский, Сергей Кузнецов]
Аудио 2: немецкий, AC3, 192 kbps, 2 ch, 48 kHz [оригинал]
Субтитры: английские
Главы/чаптеры
Общее
Уникальный идентификатор : 203692135851625175387723883506499293287 (0x993DADAAC9FDD790AEE505ED04339067)
Полное имя : D:\Video\Лорен.1989.BDRip-AVC by msltel.mkv
Формат : Matroska
Версия формата : Version 4
Размер файла : 2,37 Гбайт
Продолжительность : 1 ч. 23 м.
Общий поток : 4068 Кбит/сек
Название фильма : Rip by msltel
Дата кодирования : UTC 2020-03-27 02:12:37
Программа кодирования : mkvmerge v8.2.0 ('World of Adventure') 64bit
Библиотека кодирования : libebml v1.3.1 + libmatroska v1.4.2

Видео
Идентификатор : 1
Формат : AVC
Формат/Информация : Advanced Video Codec
Профиль формата : High@L4.1
Настройки формата : CABAC / 12 Ref Frames
Параметр CABAC формата : Да
Параметр RefFrames формата : 12 кадров
Идентификатор кодека : V_MPEG4/ISO/AVC
Продолжительность : 1 ч. 23 м.
Битрейт : 3686 Кбит/сек
Ширина : 1024 пикселя
Высота : 552 пикселя
Соотношение сторон : 1,85:1
Режим частоты кадров : Постоянный
Частота кадров : 24,000 кадра/сек
Цветовое пространство : YUV
Субдискретизация насыщенности : 4:2:0
Битовая глубина : 8 бит
Тип развёртки : Прогрессивная
Бит/(Пиксели*Кадры) : 0.272
Размер потока : 2,15 Гбайт (91%)
Библиотека кодирования : x264 core 159 r2991 1771b55
Настройки программы : cabac=1 / ref=12 / deblock=1:-2:-2 / analyse=0x3:0x113 / me=umh / subme=11 / psy=1 / psy_rd=1.00:0.15 / mixed_ref=1 / me_range=32 / chroma_me=1 / trellis=2 / 8x8dct=1 / cqm=0 / deadzone=21,11 / fast_pskip=0 / chroma_qp_offset=-3 / threads=6 / lookahead_threads=1 / sliced_threads=0 / nr=0 / decimate=1 / interlaced=0 / bluray_compat=0 / constrained_intra=0 / bframes=10 / b_pyramid=2 / b_adapt=2 / b_bias=0 / direct=1 / weightb=1 / open_gop=0 / weightp=2 / keyint=230 / keyint_min=23 / scenecut=40 / intra_refresh=0 / rc_lookahead=40 / rc=crf / mbtree=1 / crf=20.2 / qcomp=0.60 / qpmin=0 / qpmax=69 / qpstep=4 / vbv_maxrate=50000 / vbv_bufsize=62500 / crf_max=0.0 / nal_hrd=none / filler=0 / ip_ratio=1.40 / aq=1:1.00
Язык : German
Default : Да
Forced : Нет

Аудио #1
Идентификатор : 2
Формат : AC-3
Формат/Информация : Audio Coding 3
Коммерческое название : Dolby Digital
Идентификатор кодека : A_AC3
Продолжительность : 1 ч. 23 м.
Вид битрейта : Постоянный
Битрейт : 192 Кбит/сек
Каналы : 2 канала
ChannelLayout : L R
Частота : 48,0 КГц
Частота кадров : 31,250 кадров/сек (1536 SPF)
Метод сжатия : С потерями
Размер потока : 115 Мбайт (5%)
Заголовок : Сергей Кузнецов
Язык : Russian
ServiceKind/String : Complete Main
Default : Да
Forced : Нет

Аудио #2
Идентификатор : 3
Формат : AC-3
Формат/Информация : Audio Coding 3
Коммерческое название : Dolby Digital
Идентификатор кодека : A_AC3
Продолжительность : 1 ч. 23 м.
Вид битрейта : Постоянный
Битрейт : 192 Кбит/сек
Каналы : 2 канала
ChannelLayout : L R
Частота : 48,0 КГц
Частота кадров : 31,250 кадров/сек (1536 SPF)
Метод сжатия : С потерями
Размер потока : 115 Мбайт (5%)
Заголовок : original
Язык : German
ServiceKind/String : Complete Main
Default : Нет
Forced : Нет

Текст
Идентификатор : 4
Формат : UTF-8
Идентификатор кодека : S_TEXT/UTF8
Идентификатор кодека/Информация : UTF-8 Plain Text
Продолжительность : 1 ч. 20 м.
Битрейт : 20 бит/сек
ElementCount : 329
Размер потока : 11,9 Кбайт (0%)
Заголовок : английские
Язык : English
Default : Нет
Forced : Нет

Меню
00:00:00.000 : en:Chapter 1
00:06:52.375 : en:Chapter 2
00:12:22.416 : en:Chapter 3
00:22:12.333 : en:Chapter 4
00:26:06.125 : en:Chapter 5
00:35:18.500 : en:Chapter 6
00:50:17.708 : en:Chapter 7
01:02:32.125 : en:Chapter 8
01:07:23.250 : en:Chapter 9
01:23:26.083 : en:Chapter 10
piratbit.pw



Скачать Лорен через торрент https://b.radikal.ru/b14/2003/47/783b5501f8a9.jpg Скачать фильм Лорен через торрент бесплантно в хорошем качестве О фильме: Конец 19 века. В лесном замке недалеко от небольшого портового городка живёт 9-летняя Лорен со своей матерью Флорой, отцом и ... 5 10 1
Торрент: Зарегистрирован [2020-03-27 06:18] · скачан: 4 раз
Статус: √ проверено
Размер: 2.37 GB
Как cкачать? Как скачать Лорен через торрент | qTorrent

% Раздел Тема Автор DL S | L
Фильмы с авторской озвучкой [ 12.15 GB ] Лорен / Laurin [1989 BDRip 1080p by msltel] AVO msltel Скачать
2 | 0
Фильмы с авторской озвучкой [ 4.75 GB ] Лорен / Laurin [1989 BDRip 720p by msltel] AVO msltel Скачать
3 | 0
Фильмы с авторской озвучкой [ 1.09 GB ] Лорен / Laurin [1989 г HDRip] AVO koenig Скачать
1 | 0

28-11-2019 20:33  

Отключить всю рекламу на сайте

    Дорогой пользователь! Огромная просьба, поблагодарите релизера, оцените раздачу и оставьте свои комментарий, если Вы скачали Лорен через торрент бесплатно! Внесите свою лепту в развитие PiratBit!
    Комментировать посты могут только пользователи прошедшие не сложную регистрацию
    Показать сообщения:    

    Лорен через торрент
    Скачать бесплатно Лорен
    Лорен скачать торрент
    Лорен смотреть онлайн
    Cкачать фильм Лорен бесплатно
    Лорен скачать торрент в хорошем качестве
    Лорен смотреть онлайн бесплатно в хорошем качестве


    Вы не можете начинать темы
    Вы не можете отвечать на сообщения
    Вы не можете редактировать свои сообщения
    Вы не можете удалять свои сообщения
    Вы не можете голосовать в опросах
    Вы не можете прикреплять файлы к сообщениям
    Вы можете скачивать файлы