Ссылка на приватное зеркало всего за 1$. Внимание количество ограничено!!!

iTunes

1+1

iTunes

мы

iTunes

1

WEB-DLRip

Джокер

Пифагор

Ведьмак / The Witcher сериал

iTunes

ПШазам

iTunes

Оно 2

iTunes

30
pack

Новость дня

ВАЖНО

!!Акция!!

Alien_RageХит недели

RePack

Resident Evil 21

ИГРА 18+

pack

RePack

jed

!!Акция!!

Alien_Rage

RePack

fifa19

RePack

Assassins Creed: Odyssey

RePack

NEED FOR SPEED™ PAYBACK

4 сезон

9 сезон

Бесстыжие 9 сезон

Все сериалы

все сериалы на PB.wtf

RePack

FAR CRY 5
  

Зима (Сергей Черников) [2020, Драма, WEB-DL 1080p] [iTunes] piratbit.pw

Зима через торрент piratbit.pw

Раздают: 49 [ 3 MB/s ] Качают: 1 [ 103 KB/s ]
Размер: 2.71 GB | Добавлен: 3 д. назад | Торрент скачан:265 раз
Скачать  

25-03-2020 19:15 Зима Скачать торрент  

Зима
Год выпуска: 2020
Страна: Россия
Жанр: Драма
Продолжительность: 01:19:02
Перевод: Не требуется | iTunes
Субтитры: отсутствуют

Режиссер: Сергей Черников

rating

В ролях: Игорь Петренко, Александр Петров, Тимофей Трибунцев, Никита Павленко, Михаил Жигалов, Дмитрий Куличков, Александр Аблязов, Никита Салопин, Алексей Демидов, Никита Абдулов

Описание: По пути домой в чужом городе Александр со своим отцом получают тяжелые ранения от пьяных малолетних преступников. Отец погибает, а Александр становится опасным свидетелем, которого необходимо устранить. Он вынужден сам начать преследование и очень скоро из жертвы превращается в хладнокровного охотника.

Качество: WEB-DL 1080p
Формат: MKV

Видео: MPEG-4 AVC, 4518 Kb/s, 1920x804
Аудио: 48 kHz, AC3 Dolby Digital, 3/2 (L,C,R,l,r) + LFE ch, ~384 kbps | русский
скриншот  скриншот  скриншот  скриншот  

Complete name: Zima.2019.WEB-DL.1080p.ELEKTRI4KA.UNIONGANG.mkv
Format: Matroska
Format version: Version 4 / Version 2
File size: 2.71 GiB
Duration: 1 h 19 min
Overall bit rate: 4 904 kb/s
Movie name: ELEKTRI4KA.UNIONGANG
Encoded date: UTC 2020-03-25 18:50:30
Writing application: mkvmerge v8.3.0 ('Over the Horizon') 64bit
Writing library: libebml v1.3.1 + libmatroska v1.4.2

Video
ID: 1
Format: AVC
Format/Info: Advanced Video Codec
Format profile: High@L4
Format settings, CABAC: Yes
Format settings, Reference frames: 5 frames
Codec ID: V_MPEG4/ISO/AVC
Duration: 1 h 19 min
Bit rate: 4 518 kb/s
Width: 1 920 pixels
Height: 804 pixels
Display aspect ratio: 2.40:1
Frame rate mode: Constant
Frame rate: 24.000 FPS
Color space: YUV
Chroma subsampling: 4:2:0
Bit depth: 8 bits
Scan type: Progressive
Bits/(Pixel*Frame): 0.122
Stream size: 2.49 GiB (92%)
Language: English
Default: Yes
Forced: No
Color range: Limited
Color primaries: BT.709
Transfer characteristics: BT.709
Matrix coefficients: BT.709

Audio
ID: 2
Format: AC-3
Format/Info: Audio Coding 3
Mode extension: CM (complete main)
Format settings, Endianness: Big
Codec ID: A_AC3
Duration: 1 h 19 min
Bit rate mode: Constant
Bit rate: 384 kb/s
Channel(s): 6 channels
Channel positions: Front: L C R, Side: L R, LFE
Sampling rate: 48.0 kHz
Frame rate: 31.250 FPS (1536 spf)
Bit depth: 16 bits
Compression mode: Lossy
Stream size: 217 MiB (8%)
Language: Russian
Default: Yes
Forced: No

Menu
00:00:00.000: Глава 1
00:08:57.666: Глава 2
00:17:17.624: Глава 3
00:25:45.457: Глава 4
00:34:05.373: Глава 5
00:42:45.748: Глава 6
00:50:51.539: Глава 7
00:59:24.164: Глава 8
01:06:45.539: Глава 9

piratbit.pw



Скачать Зима через торрент https://i6.imageban.ru/out/2020/03/25/c8528dcca646b86f7f6e4745e5d11f36.png Скачать фильм Зима через торрент бесплантно в хорошем качестве Описание: По пути домой в чужом городе Александр со своим отцом получают тяжелые ранения от пьяных малолетних преступников. Отец погибает, ... 9.3 10 13
Info! Золотая раздача, скачанное не засчитывается.
Торрент: Зарегистрирован [2020-03-25 19:15] · скачан: 265 раз
Статус: √ проверено
Размер: 2.71 GB
Как cкачать? Как скачать Зима через торрент | qTorrent

% Раздел Тема Автор DL S | L
S.T.A.L.K.E.R. [ 3.37 GB ] S.T.A.L.K.E.R. Зов Припяти - Дезертир Зима v.1.7 2011 [ПираткаRUAction Shooter] Gopin Скачать
1 | 0
Фильмы 2016 [DVDrip, WEB-DLRip, HDrip] (DUB, MVO) [ 1.46 GB ] Свадебный угар / Mike and Dave Need Wedding Dates [2016 WEB-DLRip] killermax2013 Скачать
2 | 0
Фильмы 2016 [DVDrip, WEB-DLRip, HDrip] (DUB, MVO) [ 2.18 GB ] Свадебный угар / Mike and Dave Need Wedding Dates [2016 BDRip-AVC] DUB bober100 Скачать
1 | 0
Фантастика [ 1007 MB ] Барбара Джоан Хэмбли - Мать Зимы [Надежда Колганова 2016 192 kbps MP3] bober100 Скачать
1 | 1
Фильмы 2016 [DVDrip, WEB-DLRip, HDrip] (DUB, MVO) [ 1.46 GB ] Свадебный угар / Mike and Dave Need Wedding Dates [2016 BDRip] - [] Twi7ter Скачать
3 | 0
Фильмы (Blu-ray, BD-Remux, HDDVD) [ 41.98 GB ] Свадебный угар / Mike and Dave Need Wedding Dates [2016 Мело Blu-ray] Russian Mafia Скачать
1 | 0
Фильмы 2016 [DVDrip, WEB-DLRip, HDrip] (DUB, MVO) [ 747 MB ] Свадебный угар / Mike and Dave Need Wedding Dates [2016 WEB-DLRip / ] неАлексей Скачать
1 | 0


Последний раз редактировалось: bober100 (2020-03-27 15:37), всего редактировалось 2 раз(а)

28-11-2019 20:33  

Отключить всю рекламу на сайте

25-03-2020 20:06 Зима Скачать торрент  

опать петров .тьфу piratbit.pw



26-03-2020 02:28 Зима Скачать торрент  

петров таки забрал переходящее знамя лидера у козловского.безруков нервно курит в сторонке.у нас же всего пару актеров на всю великую страну.ходченкова курит вместе с безруковым.прискорбно все это с нашим кино.piratbit.pw



26-03-2020 11:12 Зима Скачать торрент  

SASHA66 писал(а):

петров таки забрал переходящее знамя лидера у козловского.безруков нервно курит в сторонке.у нас же всего пару актеров на всю великую страну.ходченкова курит вместе с безруковым.прискорбно все это с нашим кино.

Вы хотели сказать: у нас нет актёров...piratbit.pw



26-03-2020 16:55 Зима Скачать торрент  

Stig46rus писал(а):

опать петров .тьфу

Цветочки там Петренко есть 🤢piratbit.pw



27-03-2020 14:30 Зима Скачать торрент  

Откровенная чушь. Изначальная идея здравая, началось неплохо. Но потом пошла дичь и полное отсутствие логики. Стереть и забыть.piratbit.pw



29-03-2020 06:39 Зима Скачать торрент  

mindofdragon писал(а):

Откровенная чушь. Изначальная идея здравая, началось неплохо. Но потом пошла дичь и полное отсутствие логики. Стереть и забыть.

Обеими руками ЗА...piratbit.pw



    Дорогой пользователь! Огромная просьба, поблагодарите релизера, оцените раздачу и оставьте свои комментарий, если Вы скачали Зима через торрент бесплатно! Внесите свою лепту в развитие PiratBit!
    Комментировать посты могут только пользователи прошедшие не сложную регистрацию
    Показать сообщения:    

    Зима через торрент
    Скачать бесплатно Зима
    Зима скачать торрент
    Зима смотреть онлайн
    Cкачать фильм Зима бесплатно
    Зима скачать торрент в хорошем качестве
    Зима смотреть онлайн бесплатно в хорошем качестве


    Вы не можете начинать темы
    Вы не можете отвечать на сообщения
    Вы не можете редактировать свои сообщения
    Вы не можете удалять свои сообщения
    Вы не можете голосовать в опросах
    Вы не можете прикреплять файлы к сообщениям
    Вы можете скачивать файлы