Ссылка на приватное зеркало всего за 1$. Внимание количество ограничено!!!

iTunes

1+1

iTunes

мы

iTunes

1

WEB-DLRip

Джокер

Пифагор

Ведьмак / The Witcher сериал

iTunes

ПШазам

iTunes

Оно 2

iTunes

30
pack

Новость дня

ВАЖНО

!!Акция!!

Alien_RageХит недели

RePack

Resident Evil 21

ИГРА 18+

pack

RePack

jed

!!Акция!!

Alien_Rage

RePack

fifa19

RePack

Assassins Creed: Odyssey

RePack

NEED FOR SPEED™ PAYBACK

4 сезон

9 сезон

Бесстыжие 9 сезон

Все сериалы

все сериалы на PB.wtf

RePack

FAR CRY 5
  

Свистуны / La Gomera (Корнелиу Порумбою) [2019 г., комедия, криминал, WEB-DLRip, Профессиональный многоголосый закадровый "iTunes"] piratbit.pw

Свистуны через торрент piratbit.pw

Раздают: 9 [ 10 KB/s ] Качают: 1 [ 0 KB/s ]
Размер: 710 MB | Добавлен: 3 д. назад | Торрент скачан:37 раз
Скачать  

25-03-2020 18:42 Свистуны Скачать торрент  

Свистуны / La Gomera
Год выпуска: 2019
Страна: Румыния, Франция, Германия /
Жанр: комедия, криминал
Продолжительность: 01:37:18
Перевод: Профессиональный многоголосый закадровый (iTunes)

Режиссер: Корнелиу Порумбою

rating

В ролях: Влад Иванов, Катринель Марлон, Родика Лазэр, Агусти Вильяронга, Сабин Тамбреа, Иштван Теглас, Кристобаль Пинто, Антонио Буиль, Джордже Пистерьяну, Дэвид Агранов

Описание: Кристи, коррумпированный полицейский из Бухареста, без памяти влюбляется в прекрасную Гилду, роковую женщину, связанную с преступным бизнесом. Ради нее он готов на любую авантюру. Кристи намерен отправиться на солнечный остров Гомера, чтобы вызволить из тюрьмы нечистого на руку бизнесмена. Но для осуществления дерзкого плана он должен выучить местный язык свиста, специально разработанный бандитами для общения на расстоянии.

Качество: WEB-DLRip
Видео кодек: DivX
Аудио кодек: MP3
Видео: 640x272 (2.35:1), 24.000 fps, DivX Codec 4.x ~882 kbps avg, 0.21 bit/pixel
Аудио: 48 kHz, MPEG Layer 3, 2 ch, ~128.00 kbps avg
скриншот   скриншот   скриншот   скриншот   скриншот   скриншот   скриншот   скриншот  

Общее
Полное имя : F:\ФИЛЬМЫ\Свистуны.2019.WEB-DLRip.avi
Формат : AVI
Формат/Информация : Audio Video Interleave
Размер файла : 710 Мбайт
Продолжительность : 1 ч. 37 м.
Общий поток : 1020 Кбит/сек
Программа кодирования : VirtualDubMod 1.5.10.3 | www.virtualdub-fr.org || (build 2550/release)
Библиотека кодирования : VirtualDubMod build 2550/release

Видео
Идентификатор : 0
Формат : MPEG-4 Visual
Профиль формата : Advanced Simple@L5
Настройки формата : BVOP3 / GMC3 / QPel
Параметр BVOP формата : 3
Параметр QPel формата : Да
Параметр GMC формата : 3 точки перехода
Параметр матрицы формата : Default (MPEG)
Идентификатор кодека : DIVX
Идентификатор кодека/Информация : Project Mayo
Идентификатор кодека/Подсказка : DivX 4
Продолжительность : 1 ч. 37 м.
Битрейт : 883 Кбит/сек
Ширина : 640 пикселей
Высота : 272 пикселя
Соотношение сторон : 2,35:1
Частота кадров : 24,000 кадра/сек
Цветовое пространство : YUV
Субдискретизация насыщенности : 4:2:0
Битовая глубина : 8 бит
Тип развёртки : Прогрессивная
Метод сжатия : С потерями
Бит/(Пиксели*Кадры) : 0.211
Размер потока : 614 Мбайт (87%)
Библиотека кодирования : XviD 1.2.1 (UTC 2008-12-04)

Аудио
Идентификатор : 1
Формат : MPEG Audio
Версия формата : Version 1
Профиль формата : Layer 3
Настройки формата : Joint stereo / MS Stereo
Идентификатор кодека : 55
Идентификатор кодека/Подсказка : MP3
Продолжительность : 1 ч. 37 м.
Вид битрейта : Постоянный
Битрейт : 128 Кбит/сек
Каналы : 2 канала
Частота : 48,0 КГц
Частота кадров : 41,667 кадра/сек (1152 SPF)
Метод сжатия : С потерями
Размер потока : 89,1 Мбайт (13%)
Выравнивание : Соединение по промежуткам
Продолжительность промежутка : 42 мс. (1,00 видеокадр)
Время предзагрузки промежутка : 504 мс.
Библиотека кодирования : LAME3.99r
Настройки программы : -m j -V 4 -q 2 -lowpass 17 -b 128

piratbit.pw



Скачать Свистуны через торрент http://pic1.kartinco.top/images/12/js1y2.jpg Скачать фильм Свистуны через торрент бесплантно в хорошем качестве Описание: Кристи, коррумпированный полицейский из Бухареста, без памяти влюбляется в прекрасную Гилду, роковую женщину, связанную с ... 7 10 1
Торрент: Зарегистрирован [2020-03-25 18:42] · скачан: 37 раз
Статус: √ проверено
Размер: 710 MB
Как cкачать? Как скачать Свистуны через торрент | qTorrent

% Раздел Тема Автор DL S | L
Фильмы 2019-2020 [DVDrip, WEB-DLRip, HDrip] (DUB, MVO) [ 1.46 GB ] Свистуны / La Gomera [2019 WEB-DLRip] MVO bober100 Скачать
105 | 5
Фильмы (WEB-DL 720p, 1080p) [ 3.33 GB ] Свистуны / La Gomera [2019 WEB-DL 1080p] MVO bober100 Скачать
28 | 1

28-11-2019 20:33  

Отключить всю рекламу на сайте

    Дорогой пользователь! Огромная просьба, поблагодарите релизера, оцените раздачу и оставьте свои комментарий, если Вы скачали Свистуны через торрент бесплатно! Внесите свою лепту в развитие PiratBit!
    Комментировать посты могут только пользователи прошедшие не сложную регистрацию
    Показать сообщения:    

    Свистуны через торрент
    Скачать бесплатно Свистуны
    Свистуны скачать торрент
    Свистуны смотреть онлайн
    Cкачать фильм Свистуны бесплатно
    Свистуны скачать торрент в хорошем качестве
    Свистуны смотреть онлайн бесплатно в хорошем качестве


    Вы не можете начинать темы
    Вы не можете отвечать на сообщения
    Вы не можете редактировать свои сообщения
    Вы не можете удалять свои сообщения
    Вы не можете голосовать в опросах
    Вы не можете прикреплять файлы к сообщениям
    Вы можете скачивать файлы