Ссылка на приватное зеркало всего за 1$. Внимание количество ограничено!!!

iTunes

1+1

iTunes

мы

iTunes

1

WEB-DLRip

Джокер

Пифагор

Ведьмак / The Witcher сериал

iTunes

ПШазам

iTunes

Оно 2

iTunes

30
pack

Новость дня

ВАЖНО

!!Акция!!

Alien_RageХит недели

RePack

Resident Evil 21

ИГРА 18+

pack

RePack

jed

!!Акция!!

Alien_Rage

RePack

fifa19

RePack

Assassins Creed: Odyssey

RePack

NEED FOR SPEED™ PAYBACK

4 сезон

9 сезон

Бесстыжие 9 сезон

Все сериалы

все сериалы на PB.wtf

RePack

FAR CRY 5
  

Вне игры / The Way Back (Гэвин О Коннор) [2020, драма, спорт, WEB-DL 720p] MVO [HDrezka Studio] piratbit.pw

Вне игры через торрент piratbit.pw

Раздают: 20 [ 3 MB/s ] Качают: 2 [ 0 KB/s ]
Размер: 4.79 GB | Добавлен: 19 ч. назад | Торрент скачан:59 раз
Скачать  

25-03-2020 06:11 Вне игры Скачать торрент  

Вне игры | The Way Back
Год выпуска: 2020
Страна: США
Жанр: драма, спорт
Продолжительность: 01:48:22
Перевод: Профессиональный (многоголосый) | HDrezka Studio
Субтитры: английские (Full, SDH)

Режиссер: Гэвин О Коннор

rating

В ролях: Бен Аффлек, Янина Гаванкар, Микейла Уоткинс, Хэйз МакАртур, Да Винчи, Рейчал Карпани, Тодд Стэшвик, Марлин Форте, Инка Кито, Глинн Тёрмен

Описание: Джек Каннингэм в школе был восходящей баскетбольной звездой, но в какой-то момент покончил со спортом. Из-за пристрастия к таблеткам и алкоголю он в одночасье лишился всего - славы, денег и семьи. Вскоре жизнь даёт Джеку второй шанс - он берётся тренировать баскетбольную команду своей родной школы, которую все считают откровенными неудачниками.

Качество: WEB-DL 720p
Формат: MKV

Видео: MPEG-4 AVC, 5240 Kбит/с, 1248x520, 23.976 кадр/с
Аудио #1: Русский (АС3, 6 ch, 448 Кбит/с, 48.0 KHz) Профессиональный (многоголосый, закадровый) HDRezka Studio
Аудио #2: Английский (АС3, 6 ch, 640 Кбит/с, 48.0 KHz) Кбит/с)
скриншот  скриншот  скриншот  скриншот  скриншот  

Источник: The.Way.Back.2020.720p.AMZN.WEB-DL.DDP5.1.x264-TEPES
General
Unique ID : 176993726431734510928485614263902615562 (0x8527C07405A5287081AD6603A507380A)
Complete name : The.Way.Back.2020.AMZN.WEB-DL.720p.mkv
Format : Matroska
Format version : Version 4
File size : 4.79 GiB
Duration : 1 h 48 min
Overall bit rate : 6 331 kb/s
Encoded date : UTC 2020-03-30 09:16:49
Writing application : mkvmerge v7.1.0 ('Good Love') 64bit built on Jul 27 2014 13:06:55
Writing library : libebml v1.3.0 + libmatroska v1.4.1

Video
ID : 1
Format : AVC
Format/Info : Advanced Video Codec
Format profile : High@L3.1
Format settings : CABAC / 4 Ref Frames
Format settings, CABAC : Yes
Format settings, Reference fra : 4 frames
Codec ID : V_MPEG4/ISO/AVC
Duration : 1 h 48 min
Bit rate mode : Constant
Bit rate : 5 240 kb/s
Nominal bit rate : 6 000 kb/s
Width : 1 248 pixels
Height : 520 pixels
Display aspect ratio : 2.40:1
Frame rate mode : Constant
Frame rate : 23.976 (24000/1001) FPS
Color space : YUV
Chroma subsampling : 4:2:0
Bit depth : 8 bits
Scan type : Progressive
Bits/(Pixel*Frame) : 0.337
Stream size : 3.97 GiB (83%)
Language : English
Default : Yes
Forced : No
Color range : Limited
Color primaries : BT.709
Transfer characteristics : BT.709
Matrix coefficients : BT.709

Audio #1
ID : 2
Format : AC-3
Format/Info : Audio Coding 3
Commercial name : Dolby Digital
Codec ID : A_AC3
Duration : 1 h 48 min
Bit rate mode : Constant
Bit rate : 448 kb/s
Channel(s) : 6 channels
Channel layout : L R C LFE Ls Rs
Sampling rate : 48.0 kHz
Frame rate : 31.250 FPS (1536 SPF)
Compression mode : Lossy
Stream size : 347 MiB (7%)
Title : MVO | HDrezka Studio
Language : Russian
Service kind : Complete Main
Default : Yes
Forced : No

Audio #2
ID : 3
Format : AC-3
Format/Info : Audio Coding 3
Commercial name : Dolby Digital
Codec ID : A_AC3
Duration : 1 h 48 min
Bit rate mode : Constant
Bit rate : 640 kb/s
Channel(s) : 6 channels
Channel layout : L R C LFE Ls Rs
Sampling rate : 48.0 kHz
Frame rate : 31.250 FPS (1536 SPF)
Compression mode : Lossy
Stream size : 496 MiB (10%)
Language : English
Service kind : Complete Main
Default : No
Forced : No

Text #1
ID : 4
Format : UTF-8
Codec ID : S_TEXT/UTF8
Codec ID/Info : UTF-8 Plain Text
Duration : 1 h 39 min
Bit rate : 68 b/s
Count of elements : 1713
Stream size : 50.0 KiB (0%)
Language : English
Default : No
Forced : No

Text #2
ID : 5
Format : UTF-8
Codec ID : S_TEXT/UTF8
Codec ID/Info : UTF-8 Plain Text
Duration : 1 h 40 min
Bit rate : 77 b/s
Count of elements : 1855
Stream size : 57.1 KiB (0%)
Title : SDH
Language : English
Default : No
Forced : No

piratbit.pw



Скачать Вне игры через торрент http://c.radikal.ru/c22/2003/59/0e48c68ec8d6.jpg Скачать фильм Вне игры через торрент бесплантно в хорошем качестве Описание: Джек Каннингэм в школе был восходящей баскетбольной звездой, но в какой-то момент покончил со спортом. Из-за пристрастия к ... 10 10 5
Торрент: Зарегистрирован [2020-03-30 11:01] · скачан: 59 раз
Статус: √ проверено
Размер: 4.79 GB
Как cкачать? Как скачать Вне игры через торрент | qTorrent

% Раздел Тема Автор DL S | L
Фильмы (WEB-DL 720p, 1080p) [ 7.84 GB ] Вне игры / The Way Back [2020 WEB-DL 1080p] MVO [HDrezka Studio] bober100 Скачать
21 | 4
T Фильмы (мультфильмы) cо спонсором показа (Новинки AVI/MKV) [ 2.05 GB ] Вне игры / The Way Back [2020 WEB-DLRip] MVO [AlphaProject] bober100 Скачать
17 | 2
T Фильмы (мультфильмы) cо спонсором показа (Новинки AVI/MKV) [ 1.37 GB ] Вне игры / The Way Back [2020 WEB-DLRip] MVO [AlphaProject] bober100 Скачать
28 | 0


Последний раз редактировалось: bober100 (2020-03-30 11:13), всего редактировалось 2 раз(а)

28-11-2019 20:33  

Отключить всю рекламу на сайте

26-03-2020 18:21 Вне игры Скачать торрент  

Хороший фильм!piratbit.pw



30-03-2020 17:12 Вне игры Скачать торрент  

Фильм, почти его биография)piratbit.pw



    Дорогой пользователь! Огромная просьба, поблагодарите релизера, оцените раздачу и оставьте свои комментарий, если Вы скачали Вне игры через торрент бесплатно! Внесите свою лепту в развитие PiratBit!
    Комментировать посты могут только пользователи прошедшие не сложную регистрацию
    Показать сообщения:    

    Вне игры через торрент
    Скачать бесплатно Вне игры
    Вне игры скачать торрент
    Вне игры смотреть онлайн
    Cкачать фильм Вне игры бесплатно
    Вне игры скачать торрент в хорошем качестве
    Вне игры смотреть онлайн бесплатно в хорошем качестве


    Вы не можете начинать темы
    Вы не можете отвечать на сообщения
    Вы не можете редактировать свои сообщения
    Вы не можете удалять свои сообщения
    Вы не можете голосовать в опросах
    Вы не можете прикреплять файлы к сообщениям
    Вы можете скачивать файлы