Ссылка на приватное зеркало всего за 1$. Внимание количество ограничено!!!

iTunes

1+1

iTunes

мы

iTunes

1

iTunes

Джокер

Пифагор

Ведьмак / The Witcher сериал

iTunes

ПШазам

iTunes

Оно 2

iTunes

30
pack

Новость дня

ВАЖНО

!!Акция!!

Alien_RageХит недели

RePack

Resident Evil 21

ИГРА 18+

pack

RePack

jed

!!Акция!!

Alien_Rage

RePack

fifa19

RePack

Assassins Creed: Odyssey

RePack

NEED FOR SPEED™ PAYBACK

4 сезон

9 сезон

Бесстыжие 9 сезон

Все сериалы

все сериалы на PB.wtf

RePack

FAR CRY 5
  

Второй шанс / En chance til (Сюзанна Бир) [2014, драма, триллер, BDRip 720p by msltel] DVO, VO piratbit.pw

Второй шанс через торрент piratbit.pw

Раздают: 5 [ 100 KB/s ]
Размер: 4.07 GB | Добавлен: 10 д. назад | Торрент скачан:17 раз
Скачать  

21-03-2020 08:09 Второй шанс Скачать торрент  

Название: Второй шанс
Оригинальное название: En chance til
Год выпуска: 2014
Страна: Дания, Швеция
Жанр: драма, триллер
Продолжительность: 01:42:01
Перевод: любительский двухголосый, любительский одноголосый
Режиссер: Сюзанна Бир
В ролях: Николай Костер-Валдау, Роланд Мёллер, Николай Ли Каас, Ульрих Томсен, Томас Бо Ларсен, Мария Бонневи, Эва Фрёлинг, Молли Бликст Эгелинд, Питер Абер, Сара Юэль Вернер

О фильме: В один пасмурный день в Копенгагене родились два мальчика: один в благополучной семье молодого полицейского и его красавицы-жены, другой - у пары законченных подонков-наркоманов. Александер был желанным ребёнком и провёл свои первые месяцы на Земле, окружённый нежной заботой, Софус был не нужен никому, включая родителей, и заживо гнил среди мусора и грязных подгузников. Но судьбе было угодно, чтобы однажды пути двух таких непохожих семей пересеклись. После того как маленький сын в семье полицейского умирает, он похищает ребенка такого же возраста из семьи наркоманов...



Качество: BDRip 720p
Формат: MKV
Видео: MPEG-4 AVC, 4687 Kбит/с, 1280x544
Аудио 1: русский, AC3, 384 kbps, 2 ch, 48 kHz [закадровый двухголосый, Lucky Strike]
Аудио 2: русский, AC3, 192 kbps, 2 ch, 48 kHz [закадровый одноголосый, Andi, с ненормативной лексикой]
Аудио 3: датский, AC3, 448 kbps, 6 ch, 48 kHz [оригинал]
Субтитры 1: русские
Субтитры 2: датские
Субтитры 3: английские
Главы/чаптеры
Общее
Уникальный идентификатор : 215320338092510573218656202070680014362 (0xA1FD304D1F57EA1CA061AEB0F10A0E1A)
Полное имя : D:\Video\Второй шанс.2014.BDRip 720p by msltel.mkv
Формат : Matroska
Версия формата : Version 4
Размер файла : 4,07 Гбайт
Продолжительность : 1 ч. 42 м.
Общий поток : 5714 Кбит/сек
Название фильма : Rip by msltel
Дата кодирования : UTC 2020-03-21 02:54:01
Программа кодирования : mkvmerge v8.2.0 ('World of Adventure') 64bit
Библиотека кодирования : libebml v1.3.1 + libmatroska v1.4.2

Видео
Идентификатор : 1
Формат : AVC
Формат/Информация : Advanced Video Codec
Профиль формата : High@L4.1
Настройки формата : CABAC / 12 Ref Frames
Параметр CABAC формата : Да
Параметр RefFrames формата : 12 кадров
Идентификатор кодека : V_MPEG4/ISO/AVC
Продолжительность : 1 ч. 42 м.
Битрейт : 4687 Кбит/сек
Ширина : 1280 пикселей
Высота : 544 пикселя
Соотношение сторон : 2,35:1
Режим частоты кадров : Постоянный
Частота кадров : 24,000 кадра/сек
Цветовое пространство : YUV
Субдискретизация насыщенности : 4:2:0
Битовая глубина : 8 бит
Тип развёртки : Прогрессивная
Бит/(Пиксели*Кадры) : 0.280
Размер потока : 3,34 Гбайт (82%)
Библиотека кодирования : x264 core 159 r2991 1771b55
Настройки программы : cabac=1 / ref=12 / deblock=1:-2:-2 / analyse=0x3:0x113 / me=umh / subme=11 / psy=1 / psy_rd=1.00:0.15 / mixed_ref=1 / me_range=32 / chroma_me=1 / trellis=2 / 8x8dct=1 / cqm=0 / deadzone=21,11 / fast_pskip=0 / chroma_qp_offset=-3 / threads=6 / lookahead_threads=1 / sliced_threads=0 / nr=0 / decimate=1 / interlaced=0 / bluray_compat=0 / constrained_intra=0 / bframes=13 / b_pyramid=2 / b_adapt=2 / b_bias=0 / direct=1 / weightb=1 / open_gop=0 / weightp=2 / keyint=230 / keyint_min=23 / scenecut=40 / intra_refresh=0 / rc_lookahead=40 / rc=crf / mbtree=1 / crf=14.0 / qcomp=0.60 / qpmin=0 / qpmax=69 / qpstep=4 / vbv_maxrate=50000 / vbv_bufsize=62500 / crf_max=0.0 / nal_hrd=none / filler=0 / ip_ratio=1.40 / aq=1:1.00
Язык : Danish
Default : Да
Forced : Нет

Аудио #1
Идентификатор : 2
Формат : AC-3
Формат/Информация : Audio Coding 3
Коммерческое название : Dolby Digital
Идентификатор кодека : A_AC3
Продолжительность : 1 ч. 41 м.
Вид битрейта : Постоянный
Битрейт : 384 Кбит/сек
Каналы : 2 канала
ChannelLayout : L R
Частота : 48,0 КГц
Частота кадров : 31,250 кадров/сек (1536 SPF)
Метод сжатия : С потерями
Размер потока : 280 Мбайт (7%)
Заголовок : DVO Lucky Strike
Язык : Russian
ServiceKind/String : Complete Main
Default : Да
Forced : Нет

Аудио #2
Идентификатор : 3
Формат : AC-3
Формат/Информация : Audio Coding 3
Коммерческое название : Dolby Digital
Идентификатор кодека : A_AC3
Продолжительность : 1 ч. 41 м.
Вид битрейта : Постоянный
Битрейт : 192 Кбит/сек
Каналы : 2 канала
ChannelLayout : L R
Частота : 48,0 КГц
Частота кадров : 31,250 кадров/сек (1536 SPF)
Метод сжатия : С потерями
Размер потока : 140 Мбайт (3%)
Заголовок : Andi с ненормативной лексикой
Язык : Russian
ServiceKind/String : Complete Main
Default : Нет
Forced : Нет

Аудио #3
Идентификатор : 4
Формат : AC-3
Формат/Информация : Audio Coding 3
Коммерческое название : Dolby Digital
Идентификатор кодека : A_AC3
Продолжительность : 1 ч. 41 м.
Вид битрейта : Постоянный
Битрейт : 448 Кбит/сек
Каналы : 6 каналов
ChannelLayout : L R C LFE Ls Rs
Частота : 48,0 КГц
Частота кадров : 31,250 кадров/сек (1536 SPF)
Метод сжатия : С потерями
Размер потока : 327 Мбайт (8%)
Заголовок : original
Язык : Danish
ServiceKind/String : Complete Main
Default : Нет
Forced : Нет

Текст #1
Идентификатор : 5
Формат : UTF-8
Идентификатор кодека : S_TEXT/UTF8
Идентификатор кодека/Информация : UTF-8 Plain Text
Продолжительность : 1 ч. 37 м.
Битрейт : 37 бит/сек
ElementCount : 604
Размер потока : 26,5 Кбайт (0%)
Заголовок : русские Михаил Васильев
Язык : Russian
Default : Нет
Forced : Нет

Текст #2
Идентификатор : 6
Формат : UTF-8
Идентификатор кодека : S_TEXT/UTF8
Идентификатор кодека/Информация : UTF-8 Plain Text
Продолжительность : 1 ч. 39 м.
Битрейт : 33 бит/сек
ElementCount : 686
Размер потока : 24,4 Кбайт (0%)
Заголовок : датские
Язык : Danish
Default : Нет
Forced : Нет

Текст #3
Идентификатор : 7
Формат : UTF-8
Идентификатор кодека : S_TEXT/UTF8
Идентификатор кодека/Информация : UTF-8 Plain Text
Продолжительность : 1 ч. 35 м.
Битрейт : 32 бит/сек
ElementCount : 676
Размер потока : 22,7 Кбайт (0%)
Заголовок : английские
Язык : English
Default : Нет
Forced : Нет

Меню
00:00:00.000 : :Chapter 1
00:09:59.915 : :Chapter 2
00:19:59.625 : :Chapter 3
00:29:59.790 : :Chapter 4
00:39:59.666 : :Chapter 5
00:49:59.916 : :Chapter 6
00:59:59.791 : :Chapter 7
01:09:59.957 : :Chapter 8
01:19:59.791 : :Chapter 9
01:29:59.916 : :Chapter 10
01:39:59.791 : :Chapter 11
piratbit.pw



Скачать Второй шанс через торрент https://c.radikal.ru/c17/2003/e0/c7dc0011f849.jpg Скачать фильм Второй шанс через торрент бесплантно в хорошем качестве О фильме: В один пасмурный день в Копенгагене родились два мальчика: один в благополучной семье молодого полицейского и его красавицы-жены, ... 10 10 2
Info! Золотая раздача, скачанное не засчитывается.
Торрент: Зарегистрирован [2020-03-21 08:09] · скачан: 17 раз
Статус: √ проверено
Размер: 4.07 GB
Как cкачать? Как скачать Второй шанс через торрент | qTorrent

% Раздел Тема Автор DL S | L
Фильмы [HD 720p, 1080p] (Звук Cam, VO, DVO) [ 10.33 GB ] Второй шанс / En chance til [2014 BDRip 1080p by msltel] DVO VO msltel Скачать
3 | 0
Фильмы 2014 (Звук TS, Cam, VO, DVO) [ 2.27 GB ] Второй шанс / En chance til [2014 BDRip-AVC by msltel] DVO VO msltel Скачать
4 | 0
Фильмы [HD 720p, 1080p] (Звук Cam, VO, DVO) [ 5.34 GB ] Второй шанс / En chance til [2014 BDRip 720p] DVO Ворон Скачать
2 | 0
T Фильмы [HD 720p, 1080p] (Звук Cam, VO, DVO) [ 7.92 GB ] Второй шанс / En chance til [2014 BDRip 1080p] DVO Ворон Скачать
2 | 0
T Фильмы 2014 (Звук TS, Cam, VO, DVO) [ 1.46 GB ] Второй шанс / En chance til [2014 HDRip] DVO Ворон Скачать
1 | 0

28-11-2019 20:33  

Отключить всю рекламу на сайте

    Дорогой пользователь! Огромная просьба, поблагодарите релизера, оцените раздачу и оставьте свои комментарий, если Вы скачали Второй шанс через торрент бесплатно! Внесите свою лепту в развитие PiratBit!
    Комментировать посты могут только пользователи прошедшие не сложную регистрацию
    Показать сообщения:    

    Второй шанс через торрент
    Скачать бесплатно Второй шанс
    Второй шанс скачать торрент
    Второй шанс смотреть онлайн
    Cкачать фильм Второй шанс бесплатно
    Второй шанс скачать торрент в хорошем качестве
    Второй шанс смотреть онлайн бесплатно в хорошем качестве


    Вы не можете начинать темы
    Вы не можете отвечать на сообщения
    Вы не можете редактировать свои сообщения
    Вы не можете удалять свои сообщения
    Вы не можете голосовать в опросах
    Вы не можете прикреплять файлы к сообщениям
    Вы можете скачивать файлы