Ссылка на приватное зеркало всего за 1$. Внимание количество ограничено!!!

iTunes

1+1

iTunes

мы

iTunes

1

WEB-DLRip

Джокер

Пифагор

Ведьмак / The Witcher сериал

iTunes

ПШазам

iTunes

Оно 2

iTunes

30
pack

Новость дня

ВАЖНО

!!Акция!!

Alien_RageХит недели

RePack

Resident Evil 21

ИГРА 18+

pack

RePack

jed

!!Акция!!

Alien_Rage

RePack

fifa19

RePack

Assassins Creed: Odyssey

RePack

NEED FOR SPEED™ PAYBACK

4 сезон

9 сезон

Бесстыжие 9 сезон

Все сериалы

все сериалы на PB.wtf

RePack

FAR CRY 5
  

Бахубали: Рождение легенды (Бахубали: Завершение) / Bahubali 2: The Conclusion (С.С. Раджамули) [2017 г., Фэнтези, боевик, драма, приключения, HDRip, Любительский (многоголосый)] piratbit.pw

Бахубали: Рождение легенды через торрент piratbit.pw

Раздают: 8 [ 0 KB/s ]
Размер: 1.45 GB | Добавлен: 8 д. назад | Торрент скачан:36 раз
Скачать  

21-03-2020 05:31 Бахубали: Рождение легенды Скачать торрент  

Бахубали: Рождение легенды (Бахубали: Завершение) / Bahubali 2: The Conclusion
Год выпуска: 2017
Страна: Индия
Жанр: Фэнтези, боевик, драма, приключения
Продолжительность: 02:46:50
Перевод: Любительский (многоголосый)
Субтитры: Вшитые на песни

Режиссер: С.С. Раджамули

Бюджет: $36 000 000
Премьера в мире: 27 апреля 2017

rating

В ролях: Прабхас, Рана Даггубати, Анушка Шетти, Таманна Бхатия, Сатхьярадж, Рамья Кришна, Нассер, Суббараджу, Мека Рама Кришна, Таникелла Бхарани и др.

Описание: Старый Каттаппа рассказывает Шиве, почему убил его отца Амарендру. После того как тот был усыновлён королевой Сивагами, старший сводный брат Бхаллаладева всегда ему завидовал. Зависть достигла апогея после битвы с дикими племенами, когда Сивагами нарекла младшего сына наследником королевства. Бхаллаладева и его хитрый дядя начинают плести грязные интриги, чтобы сжить Амарендру со свету.

Качество: HDRip
Формат: AVI
Видео кодек: XviD
Аудио кодек: AC3
Видео: Bit rate: 1 043 kb/s, 720х304, 24 кадра в сек
Аудио#1: Bit rate: 192 kb/s, 2 channels, 48.0 kHz
Релиз от: scarabey
Фильм установил рекорд по мировым сборам в 81 000 000 долларов за три дня проката не только для Толливуда (кино на языке телугу), но и для индийского кино вообще.
Бахубали — персонаж джайнской мифологии. Является олицетворением ахимсы (ненасилия) и аскетизма. В переводе означает «обладатель могучих рук».
Является первым индийским фильмом, выпущенным в формате 4K.
Полная версия фильма имеет хронометраж 167 минут, в российском прокате шла укороченная.





Format : AVI
Format/Info : Audio Video Interleave
File size : 1.45 GiB
Duration : 2 h 46 min
Overall bit rate : 1 244 kb/s
Writing application : VirtualDubMod 1.5.10.3 | www.virtualdub-fr.org || (build 2550/release)
Writing library : VirtualDubMod build 2550/release

Video
ID : 0
Format : MPEG-4 Visual
Format profile : Advanced Simple@L5
Format settings : BVOP1 / Custom Matrix
Format settings, BVOP : 1
Format settings, QPel : No
Format settings, GMC : No warppoints
Format settings, Matrix : Custom
Codec ID : XVID
Codec ID/Hint : XviD
Duration : 2 h 46 min
Bit rate : 1 043 kb/s
Width : 720 pixels
Height : 304 pixels
Display aspect ratio : 2.35:1
Frame rate : 24.000 FPS
Color space : YUV
Chroma subsampling : 4:2:0
Bit depth : 8 bits
Scan type : Progressive
Compression mode : Lossy
Bits/(Pixel*Frame) : 0.198
Stream size : 1.21 GiB (84%)
Writing library : XviD 73

Audio
ID : 1
Format : AC-3
Format/Info : Audio Coding 3
Commercial name : Dolby Digital
Codec ID : 2000
Duration : 2 h 46 min
Bit rate mode : Constant
Bit rate : 192 kb/s
Channel(s) : 2 channels
Channel layout : L R
Sampling rate : 48.0 kHz
Frame rate : 31.250 FPS (1536 SPF)
Bit depth : 16 bits
Compression mode : Lossy
Stream size : 229 MiB (15%)
Alignment : Split across interleaves
Interleave, duration : 42 ms (1.00 video frame)
Interleave, preload duratio : 500 ms
Service kind : Complete Main

piratbit.pw



Скачать Бахубали: Рождение легенды через торрент http://pic1.kartinco.top/images/12/4n612.jpg Скачать фильм Бахубали: Рождение легенды через торрент бесплантно в хорошем качестве Описание: Старый Каттаппа рассказывает Шиве, почему убил его отца Амарендру. После того как тот был усыновлён королевой Сивагами, старший ... 10 10 3
Торрент: Зарегистрирован [2020-03-21 05:31] · скачан: 36 раз
Статус: √ проверено
Размер: 1.45 GB
Как cкачать? Как скачать Бахубали: Рождение легенды через торрент | qTorrent

28-11-2019 20:33  

Отключить всю рекламу на сайте

21-03-2020 10:02 Бахубали: Рождение легенды Скачать торрент  

...Пабухалиpiratbit.pw



24-03-2020 04:28 Бахубали: Рождение легенды Скачать торрент  

Топик был перенесен из форума Оформление раздач (Кино, Видео и ТВ) в форум Индийское кино


Enigma2010piratbit.pw



    Дорогой пользователь! Огромная просьба, поблагодарите релизера, оцените раздачу и оставьте свои комментарий, если Вы скачали Бахубали: Рождение легенды через торрент бесплатно! Внесите свою лепту в развитие PiratBit!
    Комментировать посты могут только пользователи прошедшие не сложную регистрацию
    Показать сообщения:    

    Бахубали: Рождение легенды через торрент
    Скачать бесплатно Бахубали: Рождение легенды
    Бахубали: Рождение легенды скачать торрент
    Бахубали: Рождение легенды смотреть онлайн
    Cкачать фильм Бахубали: Рождение легенды бесплатно
    Бахубали: Рождение легенды скачать торрент в хорошем качестве
    Бахубали: Рождение легенды смотреть онлайн бесплатно в хорошем качестве


    Вы не можете начинать темы
    Вы не можете отвечать на сообщения
    Вы не можете редактировать свои сообщения
    Вы не можете удалять свои сообщения
    Вы не можете голосовать в опросах
    Вы не можете прикреплять файлы к сообщениям
    Вы можете скачивать файлы