Ссылка на приватное зеркало всего за 1$. Внимание количество ограничено!!!

iTunes

iTunes

iTunes

1

iTunes

iTunes

iTunes

iTunes

iTunes

30
pack

Новость дня

ВАЖНО

!!Акция!!

Alien_RageХит недели

RePack

Resident Evil 21

ИГРА 18+

pack

RePack

jed

!!Акция!!

Alien_Rage

RePack

fifa19

RePack

Assassins Creed: Odyssey

RePack

NEED FOR SPEED™ PAYBACK

4 сезон

9 сезон

Бесстыжие 9 сезон

Все сериалы

все сериалы на PB.wtf

RePack

FAR CRY 5
  

Мир Дикого Запада / Westworld / Сезон: 3 / Серии: 1-2 из 10 (Ричард Дж. Льюис, Джонатан Нолан, Фред Туа) [2020, фантастика, драма, детектив, вестерн, WEB-DL 720p] DUB [Кравец-Рекордз / Amedia] +3MVO piratbit.pw

Мир Дикого Запада через торрент piratbit.pw

Раздают: 2 [ 0 KB/s ] Качают: 1 [ 0 KB/s ]
Размер: 6.04 GB | Добавлен: 5 д. назад | Торрент скачан:17 раз
Скачать  

19-03-2020 10:50 Мир Дикого Запада Скачать торрент  

Мир Дикого Запада | Westworld
Год выпуска: 2020
Страна: США
Жанр: фантастика, драма, детектив, вестерн
Продолжительность: ~ 01:00:09
Перевод:
Дублированный | "Кравец-Рекордз" по заказу Amedia
Профессиональный многоголосый | NewStudio
Профессиональный многоголосый | AlexFilm
Профессиональный многоголосый | HDRezka Studio
Субтитры: Русские (Forced, Full), английские (SDH)

Режиссер: Ричард Дж. Льюис, Джонатан Нолан, Фред Туа

rating

В ролях: Эван Рэйчел Вуд, Тэнди Ньютон, Джеффри Райт, Эд Харрис, Тесса Томпсон, Джеймс Марсден, Энтони Хопкинс, Анджела Сарафян, Люк Хемсворт, Саймон Куотерман

Описание: В футуристическом парке развлечений «Мир Дикого Запада» специально сконструированные андроиды выполняют любые прихоти посетителей, чтобы те чувствовали безнаказанность и полную свободу действий. Если робота убили - не беда, техники его починят, сотрут память и снова поставят в строй, навстречу новому дню и новым людским прихотям. Но оказывается, что далеко не все роботы теряют воспоминания.

Качество: WEB-DL 720p
Формат: MKV

Видео: AVC, 1280x720 (16:9), ~ 4240 Kbps, 23.976 fps
Аудио 1: AC3, 48 kHz, 6 ch, 384 kbps - Rus (Кравец-Рекордз)
Аудио 2: AC3, 48 kHz, 6 ch, 384 kbps - Rus (NewStudio)
Аудио 3: AC3, 48 kHz, 6 ch, 384 kbps - Rus (AlexFilm)
Аудио 4: AC3, 48 kHz, 2 ch, 192 kbps - Rus (HDRezka Studio)
Аудио 5: AC3, 48 kHz, 6 ch, 640 kbps - Eng
скриншот  скриншот  скриншот  скриншот  скриншот  

Общее
Уникальный идентификатор : 235892600168226891450119687162725516833 (0xB1774321A8885BF58331179F9915C621)
Полное имя : D:\Мир Дикого Запада. 3 сезон. 2020. EniaHD (WEB-DL 720p)\Westworld.s03e01. Смилуйся, Господин.mkv
Формат : Matroska
Версия формата : Version 2
Размер файла : 3,19 Гбайт
Продолжительность : 1 ч. 11 м.
Общий поток : 6358 Кбит/сек
Название фильма : Parce Domine
Дата кодирования : UTC 2020-03-19 08:53:34
Программа кодирования : mkvmerge v6.9.1 ('Blue Panther') 32bit built on Apr 18 2014 18:15:44
Библиотека кодирования : libebml v1.3.0 + libmatroska v1.4.1

Видео
Идентификатор : 1
Формат : AVC
Формат/Информация : Advanced Video Codec
Профиль формата : High@L3.1
Параметр CABAC формата : Да
Параметр RefFrames формата : 4 кадра
Идентификатор кодека : V_MPEG4/ISO/AVC
Продолжительность : 1 ч. 11 м.
Вид битрейта : Постоянный
Битрейт : 4248 Кбит/сек
Номинальный битрейт : 6000 Кбит/сек
Ширина : 1280 пикселей
Высота : 720 пикселей
Соотношение сторон : 16:9
Режим частоты кадров : Постоянный
Частота кадров : 23,976 (24000/1001) кадра/сек
Цветовое пространство : YUV
Субдискретизация насыщенности : 4:2:0
Битовая глубина : 8 бит
Тип развёртки : Прогрессивная
Бит/(Пиксели*Кадры) : 0.192
Размер потока : 2,13 Гбайт (67%)
Язык : English
Default : Да
Forced : Нет
Цветовой диапазон : Limited
Основные цвета : BT.709
Характеристики трансфера : BT.709
Коэффициенты матрицы : BT.709

Аудио #1
Идентификатор : 2
Формат : AC-3
Формат/Информация : Audio Coding 3
Расширение режима : CM (complete main)
Параметр Endianness формата : Big
Идентификатор кодека : A_AC3
Продолжительность : 1 ч. 11 м.
Вид битрейта : Постоянный
Битрейт : 384 Кбит/сек
Каналы : 6 каналов
Расположение каналов : Front: L C R, Side: L R, LFE
Частота : 48,0 КГц
Частота кадров : 31,250 кадров/сек (1536 spf)
Метод сжатия : С потерями
Размер потока : 197 Мбайт (6%)
Заголовок : Dub (Kravec)
Язык : Russian
Default : Да
Forced : Нет

Аудио #2
Идентификатор : 3
Формат : AC-3
Формат/Информация : Audio Coding 3
Расширение режима : CM (complete main)
Параметр Endianness формата : Big
Идентификатор кодека : A_AC3
Продолжительность : 1 ч. 11 м.
Вид битрейта : Постоянный
Битрейт : 384 Кбит/сек
Каналы : 6 каналов
Расположение каналов : Front: L C R, Side: L R, LFE
Частота : 48,0 КГц
Частота кадров : 31,250 кадров/сек (1536 spf)
Метод сжатия : С потерями
Размер потока : 197 Мбайт (6%)
Заголовок : NewStudio
Язык : Russian
Default : Нет
Forced : Нет

Аудио #3
Идентификатор : 4
Формат : AC-3
Формат/Информация : Audio Coding 3
Расширение режима : CM (complete main)
Параметр Endianness формата : Big
Идентификатор кодека : A_AC3
Продолжительность : 1 ч. 11 м.
Вид битрейта : Постоянный
Битрейт : 384 Кбит/сек
Каналы : 6 каналов
Расположение каналов : Front: L C R, Side: L R, LFE
Частота : 48,0 КГц
Частота кадров : 31,250 кадров/сек (1536 spf)
Метод сжатия : С потерями
Размер потока : 197 Мбайт (6%)
Заголовок : AlexFilm
Язык : Russian
Default : Нет
Forced : Нет

Аудио #4
Идентификатор : 5
Формат : AC-3
Формат/Информация : Audio Coding 3
Расширение режима : CM (complete main)
Параметр Endianness формата : Big
Идентификатор кодека : A_AC3
Продолжительность : 1 ч. 11 м.
Вид битрейта : Постоянный
Битрейт : 192 Кбит/сек
Каналы : 2 канала
Расположение каналов : Front: L R
Частота : 48,0 КГц
Частота кадров : 31,250 кадров/сек (1536 spf)
Метод сжатия : С потерями
Размер потока : 98,6 Мбайт (3%)
Заголовок : HDRezka Studio
Язык : Russian
Default : Нет
Forced : Нет

Аудио #5
Идентификатор : 6
Формат : AC-3
Формат/Информация : Audio Coding 3
Расширение режима : CM (complete main)
Параметр Endianness формата : Big
Идентификатор кодека : A_AC3
Продолжительность : 1 ч. 11 м.
Вид битрейта : Постоянный
Битрейт : 640 Кбит/сек
Каналы : 6 каналов
Расположение каналов : Front: L C R, Side: L R, LFE
Частота : 48,0 КГц
Частота кадров : 31,250 кадров/сек (1536 spf)
Метод сжатия : С потерями
Размер потока : 329 Мбайт (10%)
Язык : English
Default : Нет
Forced : Нет

Текст #1
Идентификатор : 7
Формат : UTF-8
Идентификатор кодека : S_TEXT/UTF8
Идентификатор кодека/Информация : UTF-8 Plain Text
Заголовок : Forced
Язык : Russian
Default : Да
Forced : Да

Текст #2
Идентификатор : 8
Формат : UTF-8
Идентификатор кодека : S_TEXT/UTF8
Идентификатор кодека/Информация : UTF-8 Plain Text
Язык : Russian
Default : Нет
Forced : Нет

Текст #3
Идентификатор : 9
Формат : UTF-8
Идентификатор кодека : S_TEXT/UTF8
Идентификатор кодека/Информация : UTF-8 Plain Text
Заголовок : SDH
Язык : English
Default : Нет
Forced : Нет

Когда раздача ведётся путём добавления новых серий, при каждом добавлении создётся новый торрент. Чтобы начать докачку новой серии, пользователям необходимо сделать следующее:
(1) остановить скачивание,
(2) удалить старый торрент у себя из клиента (старые серии удалять не надо),
(3) скачать новый торрент и запустить его у себя в клиенте вместо старого, при этом указать клиенту путь в старую папку, куда и должно происходить скачивание новых серий.
Ваш клиент при этом должен произвести хеширование (проверку) старой папки (если не производит сам - помогите ему сделать это), и будет докачивать только те серии, которых у вас ещё нет. Старые серии при этом не удаляются, а продолжают раздаваться!
Eсли вы уже удалили старые серии, то предотвратить повторную закачку старых серий можно, отжав галочку в соответсвующих местах при запуске нового торрента. По возможности, желательно не удалять старые серии как можно дольше, чтобы релизёр не столько продолжал раздавать старые серии, а смог сконцентрироваться на новых.

piratbit.pw



Скачать Мир Дикого Запада через торрент https://funkyimg.com/i/339gV.png Скачать фильм Мир Дикого Запада через торрент бесплантно в хорошем качестве Описание: В футуристическом парке развлечений «Мир Дикого Запада» специально сконструированные андроиды выполняют любые прихоти ... 10 10 3
Торрент: Зарегистрирован [2020-03-27 10:25] · скачан: 17 раз
Статус: √ проверено
Размер: 6.04 GB
Как cкачать? Как скачать Мир Дикого Запада через торрент | qTorrent

% Раздел Тема Автор DL S | L
Зарубежные сериалы [ 10.28 GB ] Мир Дикого Запада / Westworld / Сезон: 3 / Серии: 1-2 из 10 [2020 WEB-DL 1080p] DUB [Кравец-Рекордз / Amedia] +3MVO bober100 Скачать
3 | 0

28-11-2019 20:33  

Отключить всю рекламу на сайте

    Дорогой пользователь! Огромная просьба, поблагодарите релизера, оцените раздачу и оставьте свои комментарий, если Вы скачали Мир Дикого Запада через торрент бесплатно! Внесите свою лепту в развитие PiratBit!
    Комментировать посты могут только пользователи прошедшие не сложную регистрацию
    Показать сообщения:    

    Мир Дикого Запада через торрент
    Скачать бесплатно Мир Дикого Запада
    Мир Дикого Запада скачать торрент
    Мир Дикого Запада смотреть онлайн
    Cкачать фильм Мир Дикого Запада бесплатно
    Мир Дикого Запада скачать торрент в хорошем качестве
    Мир Дикого Запада смотреть онлайн бесплатно в хорошем качестве


    Вы не можете начинать темы
    Вы не можете отвечать на сообщения
    Вы не можете редактировать свои сообщения
    Вы не можете удалять свои сообщения
    Вы не можете голосовать в опросах
    Вы не можете прикреплять файлы к сообщениям
    Вы можете скачивать файлы