1 сезон

1 сезон

iTunes

1

КиноПоиск HD

Кинопоиск HD

iTunes

13

1 сезон

RePack

30

Новинка

ВАЖНО

ИГРА 18+

pack

RePack

MK11
pack

Легкие деньги

RePack

jed

RePack

fifa19

RePack

RDR2

RePack

NEED FOR SPEED™ PAYBACK

4 сезон

9 сезон

Бесстыжие 9 сезон

Все сериалы

все сериалы на PB.wtf

RePack

FAR CRY 5
  
Magnet ссылка

Жук / Bug (Жанно Шварц) [1975, ужасы, фантастика, детектив, BDRip-AVC by msltel] AVO piratbit.pw

Жук через торрент piratbit.pw

Размер: 2.38 GB | Добавлен: 1 год 1 мес. назад | Торрент скачан:9 раз
Скачать  

19-03-2020 06:51 Жук Скачать торрент  

Название: Жук
Оригинальное название: Bug
Год выпуска: 1975
Страна: США
Жанр: ужасы, фантастика, детектив
Продолжительность: 01:39:48
Перевод: авторский
Режиссер: Жанно Шварц
В ролях: Брэдфорд Диллман, Джоэнна Майлз, Ричард Джиллилэнд, Джэми Смит-Джексон, Алан Фьюдж, Джесси Винт, Патриция МакКормак, Брендан Диллон, Фред Даунс, Джеймс Грин

О фильме: В результате землетрясения на поверхность земли выползают насекомые, которые сжигают всё, к чему прикасаются. Биолог Джеймс изучает их в своей лаборатории. Он проводит скрещивание, которое приводит к созданию более разумной породы. Но когда профессор хочет уничтожить насекомых, оказывается уже слишком поздно...



Качество: BDRip-AVC
Формат: MKV
Видео: MPEG-4 AVC, 3025 Kбит/с, 1024x552, 23.976 Кадр/с
Аудио 1: русский, AC3, 192 kbps, 2 ch, 48 kHz [авторский, Вячеслав Котов]
Аудио 2: английский, AC3, 192 kbps, 2 ch, 48 kHz [оригинал]
Субтитры 1: русские
Субтитры 2: английские
Главы/чаптеры
Общее
Уникальный идентификатор : 171179255501086215438011563442210112988 (0x80C7ECE731BFBA5EA6B5507BECC885DC)
Полное имя : D:\Video\Жук.1975.BDRip-AVC by msltel.mkv
Формат : Matroska
Версия формата : Version 4
Размер файла : 2,38 Гбайт
Продолжительность : 1 ч. 39 м.
Общий поток : 3411 Кбит/сек
Название фильма : Rip by msltel
Дата кодирования : UTC 2020-03-19 04:50:46
Программа кодирования : mkvmerge v8.2.0 ('World of Adventure') 64bit
Библиотека кодирования : libebml v1.3.1 + libmatroska v1.4.2

Видео
Идентификатор : 1
Формат : AVC
Формат/Информация : Advanced Video Codec
Профиль формата : High@L4.1
Настройки формата : CABAC / 12 Ref Frames
Параметр CABAC формата : Да
Параметр RefFrames формата : 12 кадров
Идентификатор кодека : V_MPEG4/ISO/AVC
Продолжительность : 1 ч. 39 м.
Битрейт : 3025 Кбит/сек
Ширина : 1024 пикселя
Высота : 552 пикселя
Соотношение сторон : 1,85:1
Режим частоты кадров : Постоянный
Частота кадров : 23,976 (24000/1001) кадра/сек
Цветовое пространство : YUV
Субдискретизация насыщенности : 4:2:0
Битовая глубина : 8 бит
Тип развёртки : Прогрессивная
Бит/(Пиксели*Кадры) : 0.223
Размер потока : 2,11 Гбайт (89%)
Библиотека кодирования : x264 core 159 r2991 1771b55
Настройки программы : cabac=1 / ref=12 / deblock=1:-2:-2 / analyse=0x3:0x113 / me=umh / subme=11 / psy=1 / psy_rd=1.00:0.15 / mixed_ref=1 / me_range=32 / chroma_me=1 / trellis=2 / 8x8dct=1 / cqm=0 / deadzone=21,11 / fast_pskip=0 / chroma_qp_offset=-3 / threads=6 / lookahead_threads=1 / sliced_threads=0 / nr=0 / decimate=1 / interlaced=0 / bluray_compat=0 / constrained_intra=0 / bframes=11 / b_pyramid=2 / b_adapt=2 / b_bias=0 / direct=1 / weightb=1 / open_gop=0 / weightp=2 / keyint=230 / keyint_min=23 / scenecut=40 / intra_refresh=0 / rc_lookahead=40 / rc=crf / mbtree=1 / crf=17.5 / qcomp=0.60 / qpmin=0 / qpmax=69 / qpstep=4 / vbv_maxrate=50000 / vbv_bufsize=62500 / crf_max=0.0 / nal_hrd=none / filler=0 / ip_ratio=1.40 / aq=1:1.00
Язык : English
Default : Да
Forced : Нет

Аудио #1
Идентификатор : 2
Формат : AC-3
Формат/Информация : Audio Coding 3
Коммерческое название : Dolby Digital
Идентификатор кодека : A_AC3
Продолжительность : 1 ч. 39 м.
Вид битрейта : Постоянный
Битрейт : 192 Кбит/сек
Каналы : 2 канала
ChannelLayout : L R
Частота : 48,0 КГц
Частота кадров : 31,250 кадров/сек (1536 SPF)
Метод сжатия : С потерями
Размер потока : 137 Мбайт (6%)
Заголовок : Вячеслав Котов
Язык : Russian
ServiceKind/String : Complete Main
Default : Да
Forced : Нет

Аудио #2
Идентификатор : 3
Формат : AC-3
Формат/Информация : Audio Coding 3
Коммерческое название : Dolby Digital
Идентификатор кодека : A_AC3
Продолжительность : 1 ч. 39 м.
Вид битрейта : Постоянный
Битрейт : 192 Кбит/сек
Каналы : 2 канала
ChannelLayout : L R
Частота : 48,0 КГц
Частота кадров : 31,250 кадров/сек (1536 SPF)
Метод сжатия : С потерями
Размер потока : 137 Мбайт (6%)
Заголовок : original
Язык : English
ServiceKind/String : Complete Main
Default : Нет
Forced : Нет

Текст #1
Идентификатор : 4
Формат : UTF-8
Идентификатор кодека : S_TEXT/UTF8
Идентификатор кодека/Информация : UTF-8 Plain Text
Продолжительность : 1 ч. 38 м.
Битрейт : 52 бит/сек
ElementCount : 592
Размер потока : 37,6 Кбайт (0%)
Заголовок : русские
Язык : Russian
Default : Нет
Forced : Нет

Текст #2
Идентификатор : 5
Формат : UTF-8
Идентификатор кодека : S_TEXT/UTF8
Идентификатор кодека/Информация : UTF-8 Plain Text
Продолжительность : 1 ч. 38 м.
Битрейт : 34 бит/сек
ElementCount : 923
Размер потока : 25,1 Кбайт (0%)
Заголовок : английские
Язык : English
Default : Нет
Forced : Нет

Меню
00:00:00.000 : en:Chapter 1
00:07:49.218 : en:Chapter 2
00:17:16.660 : en:Chapter 3
00:25:15.889 : en:Chapter 4
00:35:16.823 : en:Chapter 5
00:44:32.336 : en:Chapter 6
00:52:42.117 : en:Chapter 7
00:58:55.740 : en:Chapter 8
01:07:30.129 : en:Chapter 9
01:19:17.669 : en:Chapter 10
01:27:13.895 : en:Chapter 11
01:38:29.862 : en:Chapter 12
01:39:45.980 : en:Chapter 13
piratbit.pw



Скачать Жук через торрент https://c.radikal.ru/c20/2003/75/89fcea217ec1.jpg Скачать фильм Жук через торрент бесплантно в хорошем качестве О фильме: В результате землетрясения на поверхность земли выползают насекомые, которые сжигают всё, к чему прикасаются. Биолог Джеймс ... 5 10 1
Торрент: Зарегистрирован [2020-03-19 06:51] · скачан: 9 раз
Статус: √ проверено
Размер: 2.38 GB
Как cкачать? Как скачать Жук через торрент | UTorrent

% Раздел Тема Автор DL S | L
Фильмы с авторской озвучкой [ 12.78 GB ] Жук / Bug [1975 BDRip 1080p by msltel] AVO msltel Скачать
1 | 0
Фильмы с авторской озвучкой [ 4.16 GB ] Жук / Bug [1975 BDRip 720p by msltel] AVO msltel Скачать
1 | 0
Иностранные мультфильмы [ 742 MB ] Хоппити едет в город / жука Хоппити / Mr. Bug Goes to Town / Hoppity Goes to Town / Bugville [1941 мультфильм мюзикл DVDRip] AVO dexter lex Скачать
1 | 0

28-11-2019 20:33  

Отключить всю рекламу на сайте

    Дорогой пользователь! Огромная просьба, поблагодарите релизера, оцените раздачу и оставьте свои комментарий, если Вы скачали Жук через торрент бесплатно! Внесите свою лепту в развитие PiratBit!
    Комментировать посты могут только пользователи прошедшие не сложную регистрацию
    Показать сообщения:    

    Жук через торрент
    Скачать бесплатно Жук
    Жук скачать торрент
    Жук смотреть онлайн
    Cкачать фильм Жук бесплатно
    Жук скачать торрент в хорошем качестве
    Жук смотреть онлайн бесплатно в хорошем качестве


    Вы не можете начинать темы
    Вы не можете отвечать на сообщения
    Вы не можете редактировать свои сообщения
    Вы не можете удалять свои сообщения
    Вы не можете голосовать в опросах
    Вы не можете прикреплять файлы к сообщениям
    Вы можете скачивать файлы