Ссылка на приватное зеркало всего за 1$. Внимание количество ограничено!!!

iTunes

1+1

iTunes

мы

iTunes

1

WEB-DLRip

Джокер

Пифагор

Ведьмак / The Witcher сериал

iTunes

ПШазам

iTunes

Оно 2

iTunes

30
pack

Новость дня

ВАЖНО

!!Акция!!

Alien_RageХит недели

RePack

Resident Evil 21

ИГРА 18+

pack

RePack

jed

!!Акция!!

Alien_Rage

RePack

fifa19

RePack

Assassins Creed: Odyssey

RePack

NEED FOR SPEED™ PAYBACK

4 сезон

9 сезон

Бесстыжие 9 сезон

Все сериалы

все сериалы на PB.wtf

RePack

FAR CRY 5
  

Проспект обороны / Сезон: 1 / Серии: 1-16 из 16 (Сергей Быстрицкий, Сергей Винокуров) [2020, Драма, спорт, WEBRip 1080p, HDTV 1080i] piratbit.pw

Проспект обороны через торрент piratbit.pw

Качают: 9 [ 0 KB/s ]
Размер: 31.33 GB | Добавлен: 4 ч. назад | Торрент скачан:0 раз
Скачать  

19-03-2020 03:47 Проспект обороны Скачать торрент  

Проспект обороны
Год выпуска: 2020
Страна: Россия
Жанр: Драма, спорт
Продолжительность: ~ 00:50:00 серия
Субтитры: отсутствуют

Режиссер: Сергей Быстрицкий, Сергей Винокуров



В ролях: Макар Запорожский, Виктория Романенко, Олег Фомин, Роман Курцын, Кирилл Полухин, Кирилл Варакса, Елена Руфанова, Яков Шамшин, Сергей Кошонин, Наталья Высочанская, Евгений Карпов, Марина Даминева, Глеб Степан Каллистов, Елизавета Бойко, Сергей Воробьёв (IV), Сергей Кореньков, Сергей Колос, Юрий Елагин, Юлия Чесняк, Павел Юринов, Алексей Федькин, Мария Капустинская

Описание: Денис Астахов, молодой амбициозный боксер, срывает бой на звание чемпиона города. Чтобы Денис все-таки смог принять участие в чемпионате, отец Дениса – Александр Астахов - готов дать взятку спортивным чиновникам. Чтобы собрать необходимую сумму, отец отправляет сына на участие в коммерческих боях. Астахов – старший не знает, что Денису там отведена лишь роль статиста. Но Денис привык побеждать, а не ложиться по заказу в третьем раунде. Но главное испытание ждет Дениса впереди – когда он узнает, что его отец и любимая жена Наталья – любовники.

Качество: WEBRip 1080p, HDTV 1080i
Формат: MKV, TS

Видео: 1920х1080 (16:9), 25 fps, AVC MPEG-4 (x264), High@L4.0 ~ 6000 kbps avg, 0.116 bit/pixel
Аудио: 48 kHz, AC3, 2 ch, 192 kbps avg
скриншот  скриншот  скриншот  скриншот  

Общее
Уникальный идентификатор : 242197101516054964832269506567716628368 (0xB635770BE6DA2C6D9DCC9DE6CEE26790)
Полное имя : D:\Prospekt.oborony.2019.WEB-DL.(1080p).ExKinoRay\Prospekt.oborony.E01.2019.WEB-DL.(1080p).ExKinoRay.mkv
Формат : Matroska
Версия формата : Version 4 / Version 2
Размер файла : 2,16 Гбайт
Продолжительность : 50 м. 14 с.
Режим общего битрейта : Постоянный
Общий поток : 6151 Кбит/сек
Дата кодирования : UTC 2020-03-18 21:07:13
Программа кодирования : mkvmerge v6.9.1 ('Blue Panther') 64bit built on Apr 18 2014 18:23:38
Библиотека кодирования : libebml v1.3.0 + libmatroska v1.4.1

Видео
Идентификатор : 1
Формат : AVC
Формат/Информация : Advanced Video Codec
Профиль формата : High@L4.1
Параметр CABAC формата : Нет
Параметр RefFrames формата : 2 кадра
Идентификатор кодека : V_MPEG4/ISO/AVC
Продолжительность : 50 м. 14 с.
Вид битрейта : Постоянный
Битрейт : 6000 Кбит/сек
Ширина : 1920 пикселей
Высота : 1080 пикселей
Соотношение сторон : 16:9
Режим частоты кадров : Постоянный
Частота кадров : 25,000 кадров/сек
Стандарт вещания : PAL
Цветовое пространство : YUV
Субдискретизация насыщенности : 4:2:0
Битовая глубина : 8 бит
Тип развёртки : Прогрессивная
Бит/(Пиксели*Кадры) : 0.116
Размер потока : 2,05 Гбайт (95%)
Default : Да
Forced : Нет
Цветовой диапазон : Limited
Основные цвета : BT.709
Характеристики трансфера : BT.709
Коэффициенты матрицы : BT.709

Аудио
Идентификатор : 2
Формат : AC-3
Формат/Информация : Audio Coding 3
Расширение режима : CM (complete main)
Параметр Endianness формата : Big
Идентификатор кодека : A_AC3
Продолжительность : 50 м. 14 с.
Вид битрейта : Постоянный
Битрейт : 192 Кбит/сек
Каналы : 2 канала
Расположение каналов : Front: L R
Частота : 48,0 КГц
Частота кадров : 31,250 кадров/сек (1536 spf)
Метод сжатия : С потерями
Размер потока : 69,0 Мбайт (3%)
Язык : Russian
Default : Да
Forced : Нет

Внимание! Раздача ведётся путём добавления новых серий; при каждом добавлении создаётся новый торрент.
Чтобы начать докачку новой серии, пользователям необходимо сделать следующее:
1. Остановить скачивание;
2. Удалить старый торрент у себя из клиента (старые серии удалять не надо);
3. Скачать новый торрент и запустить его у себя в клиенте вместо старого, при этом указать клиенту путь в старую папку куда и должно происходить скачивание новых серий. Ваш клиент при этом должен произвести хеширование (проверку) старой папки и будет докачивать только те серии, которых у вас ещё нет. Старые серии при этом не удаляются, а продолжают раздаваться! Eсли вы уже удалили старые серии, то предотвратить повторную закачку старых серий можно, отжав галочку в соответствующих местах при запуске нового торрента.

piratbit.pw



Скачать Проспект обороны через торрент https://img10.lostpic.net/2020/03/18/d4f61bd532791a5c1183c2bb6ceacb8e.jpg Скачать фильм Проспект обороны через торрент бесплантно в хорошем качестве Описание: Денис Астахов, молодой амбициозный боксер, срывает бой на звание чемпиона города. Чтобы Денис все-таки смог принять участие в ... 10 10 2
Торрент: Зарегистрирован [2020-03-29 10:48] · скачан: 0 раз
Статус: √ проверено
Размер: 31.33 GB
Как cкачать? Как скачать Проспект обороны через торрент | qTorrent

% Раздел Тема Автор DL S | L
Наши сериалы [ 15.46 GB ] Проспект обороны / Сезон: 1 / Серии: 1-12 из 16 [2020 WEBRip 720p] bober100 Скачать
2 | 2
Наши сериалы [ 12.24 GB ] Проспект обороны / Сезон: 1 / Серии: 1-16 из 16 [2020 WEBRip-AVC HDTVRip-AVC] bober100 Скачать
4 | 1
Наши сериалы [ 10.05 GB ] Проспект обороны / Сезон: 1 / Серии: 1-16 из 16 [2020 WEBRip HDTVRip] bober100 Скачать
2 | 4
Наши сериалы [ 10.25 GB ] Проспект обороны / Сезон: 1 / Серии: 1-16 из 16 [2020 SATRip] bober100 Скачать
17 | 12

28-11-2019 20:33  

Отключить всю рекламу на сайте

    Дорогой пользователь! Огромная просьба, поблагодарите релизера, оцените раздачу и оставьте свои комментарий, если Вы скачали Проспект обороны через торрент бесплатно! Внесите свою лепту в развитие PiratBit!
    Комментировать посты могут только пользователи прошедшие не сложную регистрацию
    Показать сообщения:    

    Проспект обороны через торрент
    Скачать бесплатно Проспект обороны
    Проспект обороны скачать торрент
    Проспект обороны смотреть онлайн
    Cкачать фильм Проспект обороны бесплатно
    Проспект обороны скачать торрент в хорошем качестве
    Проспект обороны смотреть онлайн бесплатно в хорошем качестве


    Вы не можете начинать темы
    Вы не можете отвечать на сообщения
    Вы не можете редактировать свои сообщения
    Вы не можете удалять свои сообщения
    Вы не можете голосовать в опросах
    Вы не можете прикреплять файлы к сообщениям
    Вы можете скачивать файлы