Ссылка на приватное зеркало нашего сайта всего за 1$. Внимание количество ограничено!!!

2 сезон

iTunes

1 сезон

1

iTunes

iTunes

iTunes

1 сезон

RePack

30

ИГРА 18+

pack

ВАЖНО

!!Акция!!

Alien_RageХит недели

RePack

MK11
pack

Забери бонус

RePack

jed

!!Акция!!

Alien_Rage

RePack

fifa19

RePack

Assassins Creed: Odyssey

RePack

NEED FOR SPEED™ PAYBACK

4 сезон

9 сезон

Бесстыжие 9 сезон

Все сериалы

все сериалы на PB.wtf

RePack

FAR CRY 5
  

Долгий путь / Большая слежка / The Big Trail (Рауль Уолш, Луис Р. Лоффлер) [1930, мелодрама, приключения, вестерн, BDRip 720p] MVO + AVO - KORSAR piratbit.pw

Долгий путь через торрент piratbit.pw

Размер: 8.99 GB | Добавлен: 7 мес. назад | Торрент скачан:0 раз
Скачать  

17-03-2020 09:24 Долгий путь Скачать торрент  

Долгий путь / Большая слежка / The Big Trail
Страна: США
Жанр: мелодрама, приключения, вестерн
Год выпуска: 1930
Продолжительность: 02:01:42
Перевод: Профессиональный (многоголосый, закадровый), Авторский
Субтитры: английские.
Режиссер: Рауль Уолш / Raoul Walsh, Луис Р. Лоффлер / Louis R. Loeffler
В ролях: Джон Уэйн (Breck Coleman), Маргарит Черчилль (Ruth Cameron), Эль Брендел (Gus), Талли Маршалл (Zeke), Тайрон Пауэр ст. (Red Flack), Дэвид Роллинз (Dave Cameron), Фредерик Бертон (Pa Bascom), Иэн Кит (Bill Thorpe), Чарльз Стивенс (Lopez), Луиз Карвер (Gus's mother-in-law), Виктор Адамсон (Wagon Train Man, в титрах не указан), Уолтер Бэйкон (Pioneer, в титрах не указан)
Описание: Брек Коулмэн человек молодой и горячий, желающий отомстить за смерть своего старого друга. Он подозревает Реда Флэка и его подручного Лопеса и чтобы подтвердить свои подозрения он присоединяется к группе переселенцев, следующих на Запад под началом Флэка.



Качество: BDRip 720p
Контейнер: MKV

Видео: AVC, 1280x612 (2.092), 10000 kbps, 23,976 fps, 0,532 bpp
Аудио №1: русский / AC3 / 2.0 / 48 kHz / 192 kbps / MVO
Аудио №2: русский / AC3 / 2.0 / 48 kHz / 192 kbps / AVO
Аудио №3: английский / AC3 / 2.0 / 48 kHz / 192 kbps
Навигация по главам: есть
****************************************************************
x264 [info]: frame I:980 Avg QP:18.19 size:136827
x264 [info]: frame P:32892 Avg QP:19.66 size: 84261
x264 [info]: frame B:141220 Avg QP:21.39 size: 44054
****************************************************************
Формат : Matroska
Версия формата : Version 2
Размер файла : 8,99 Гбайт
Продолжительность : 2 ч. 1 м.
Общий поток : 10,6 Мбит/сек
Название фильма : = Долгий путь / Большая слежка / The Big Trail (1930) BDRip 720p - KORSAR =
Дата кодирования : UTC 2020-01-28 15:57:30
Программа кодирования : mkvmerge v5.8.0 ('No Sleep / Pillow') built on Sep 2 2012 15:37:04
Библиотека кодирования : libebml v1.2.3 + libmatroska v1.3.0
Attachment : Yes

Видео
Идентификатор : 1
Формат : AVC
Формат/Информация : Advanced Video Codec
Профиль формата : High@L4.1
Параметр CABAC формата : Да
Параметр ReFrames формата : 10 кадров
Идентификатор кодека : V_MPEG4/ISO/AVC
Продолжительность : 2 ч. 1 м.
Битрейт : 10000 Кбит/сек
Ширина : 1280 пикселей
Высота : 612 пикселей
Соотношение сторон : 2,092
Режим частоты кадров : Постоянный
Частота кадров : 23,976 кадра/сек
Цветовое пространство : YUV
Субдискретизация насыщенности : 4:2:0
Битовая глубина : 8 бит
Тип развёртки : Прогрессивная
Бит/(Пиксели*Кадры) : 0.532
Размер потока : 8,32 Гбайт (93%)
Заголовок : Долгий путь / Большая слежка / The Big Trail (1930) BDRip 720p - KORSAR
Библиотека кодирования : x264 core 158 r2984 3759fcb
Настройки программы : cabac=1 / ref=10 / deblock=1:-3:-2 / analyse=0x3:0x113 / me=umh / subme=11 / psy=1 / psy_rd=1.00:0.10 / mixed_ref=1 / me_range=48 / chroma_me=1 / trellis=2 / 8x8dct=1 / cqm=0 / deadzone=21,11 / fast_pskip=0 / chroma_qp_offset=-3 / threads=12 / lookahead_threads=3 / sliced_threads=0 / nr=0 / decimate=0 / interlaced=0 / bluray_compat=0 / constrained_intra=0 / bframes=10 / b_pyramid=2 / b_adapt=2 / b_bias=0 / direct=3 / weightb=1 / open_gop=0 / weightp=2 / keyint=240 / keyint_min=23 / scenecut=40 / intra_refresh=0 / rc_lookahead=60 / rc=2pass / mbtree=0 / bitrate=10000 / ratetol=1.0 / qcomp=0.66 / qpmin=0 / qpmax=69 / qpstep=4 / cplxblur=20.0 / qblur=0.5 / vbv_maxrate=50000 / vbv_bufsize=62500 / nal_hrd=none / filler=0 / ip_ratio=1.25 / pb_ratio=1.30 / aq=3:1.00
Язык : English
Default : Да
Forced : Нет
Основные цвета : BT.709
Характеристики трансфера : BT.709
Коэффициенты матрицы : BT.709

Аудио #1
Идентификатор : 2
Формат : AC-3
Формат/Информация : Audio Coding 3
Расширение режима : CM (complete main)
Параметр Endianness формата : Big
Идентификатор кодека : A_AC3
Продолжительность : 2 ч. 1 м.
Вид битрейта : Постоянный
Битрейт : 192 Кбит/сек
Каналы : 2 канала
Расположение каналов : Front: L R
Частота : 48,0 КГц
Битовая глубина : 16 бит
Метод сжатия : С потерями
Размер потока : 167 Мбайт (2%)
Заголовок : MVO
Язык : Russian
Default : Да
Forced : Нет

Аудио #2
Идентификатор : 3
Формат : AC-3
Формат/Информация : Audio Coding 3
Расширение режима : CM (complete main)
Параметр Endianness формата : Big
Идентификатор кодека : A_AC3
Продолжительность : 2 ч. 1 м.
Вид битрейта : Постоянный
Битрейт : 192 Кбит/сек
Каналы : 2 канала
Расположение каналов : Front: L R
Частота : 48,0 КГц
Битовая глубина : 16 бит
Метод сжатия : С потерями
Размер потока : 167 Мбайт (2%)
Заголовок : AVO
Язык : Russian
Default : Нет
Forced : Нет

Аудио #3
Идентификатор : 4
Формат : AC-3
Формат/Информация : Audio Coding 3
Расширение режима : CM (complete main)
Параметр Endianness формата : Big
Идентификатор кодека : A_AC3
Продолжительность : 2 ч. 1 м.
Вид битрейта : Постоянный
Битрейт : 192 Кбит/сек
Каналы : 2 канала
Расположение каналов : Front: L R
Частота : 48,0 КГц
Битовая глубина : 16 бит
Метод сжатия : С потерями
Размер потока : 167 Мбайт (2%)
Язык : English
Default : Нет
Forced : Нет

Текст #1
Идентификатор : 5
Формат : UTF-8
Идентификатор кодека : S_TEXT/UTF8
Идентификатор кодека/Информация : UTF-8 Plain Text
Язык : English
Default : Нет
Forced : Нет

Текст #2
Идентификатор : 6
Формат : UTF-8
Идентификатор кодека : S_TEXT/UTF8
Идентификатор кодека/Информация : UTF-8 Plain Text
Заголовок : SDH
Язык : English
Default : Нет
Forced : Нет

Меню
00:00:00.000 : en:00:00:00.000
00:08:57.954 : en:00:08:57.954
00:20:05.162 : en:00:20:05.162
00:31:21.963 : en:00:31:21.963
00:40:19.917 : en:00:40:19.917
00:51:07.648 : en:00:51:07.648
01:02:37.379 : en:01:02:37.379
01:13:15.975 : en:01:13:15.975
01:25:46.808 : en:01:25:46.808
01:34:44.053 : en:01:34:44.053
01:43:30.704 : en:01:43:30.704
01:55:17.410 : en:01:55:17.410

piratbit.pw



Скачать Долгий путь через торрент https://img16.lostpic.net/2020/02/04/a9604f00241e7fa2588f19d3db73867c.jpg Скачать фильм Долгий путь через торрент бесплантно в хорошем качестве Описание: Брек Коулмэн человек молодой и горячий, желающий отомстить за смерть своего старого друга. Он подозревает Реда Флэка и его ... 10 10 1
Торрент: Зарегистрирован [2020-03-17 09:24] · скачан: 0 раз
Статус: √ проверено
Размер: 8.99 GB
Как cкачать? Как скачать Долгий путь через торрент | qTorrent

28-11-2019 20:33  

Отключить всю рекламу на сайте

    Дорогой пользователь! Огромная просьба, поблагодарите релизера, оцените раздачу и оставьте свои комментарий, если Вы скачали Долгий путь через торрент бесплатно! Внесите свою лепту в развитие PiratBit!
    Комментировать посты могут только пользователи прошедшие не сложную регистрацию
    Показать сообщения:    

    Долгий путь через торрент
    Скачать бесплатно Долгий путь
    Долгий путь скачать торрент
    Долгий путь смотреть онлайн
    Cкачать фильм Долгий путь бесплатно
    Долгий путь скачать торрент в хорошем качестве
    Долгий путь смотреть онлайн бесплатно в хорошем качестве


    Вы не можете начинать темы
    Вы не можете отвечать на сообщения
    Вы не можете редактировать свои сообщения
    Вы не можете удалять свои сообщения
    Вы не можете голосовать в опросах
    Вы не можете прикреплять файлы к сообщениям
    Вы можете скачивать файлы