Marvel's Avengers Deluxe Edition (супер цена) 159р. Внимание количество ограничено!!!

2 сезон

iTunes

iTunes

1

iTunes

iTunes

iTunes

WEBRip

iTunes

30
pack

Новость дня

ВАЖНО

!!Акция!!

Alien_RageХит недели

RePack

Horizon Zero Dawn

ИГРА 18+

pack

RePack

jed

!!Акция!!

Alien_Rage

RePack

fifa19

RePack

Assassins Creed: Odyssey

RePack

NEED FOR SPEED™ PAYBACK

4 сезон

9 сезон

Бесстыжие 9 сезон

Все сериалы

все сериалы на PB.wtf

RePack

FAR CRY 5
  

Приказ "Уничтожить" / Секретное оружие (Костя Стат) [2019, Военный, драма, BDRip 1080p] [GER Transfer / Лицензия BD GER] piratbit.pw

Приказ "Уничтожить" через торрент piratbit.pw

Раздают: 1 [ 0.8 KB/s ]
Размер: 7.26 GB | Добавлен: 6 мес. назад | Торрент скачан:176 раз
Скачать  

17-03-2020 07:15 Приказ "Уничтожить" Скачать торрент  

Приказ "Уничтожить" | Секретное оружие
Год выпуска: 2019
Страна: Россия
Жанр: Военный, драма
Продолжительность: 01:34:32
Перевод: Не требуется + проф. одноголосый на иностранную речь | Лицензия BD GER
Субтитры: отсутствуют

Режиссер: Костя Стат



В ролях: Александр Устюгов, Тимофей Трибунцев, Анатолий Гущин, Евгений Антропов, Поля Полякова, Азамат Нигманов, Надежда Анципович, Александр Ефрем.

Описание: Фильм рассказывает о знаменитой "Катюше", которая была секретным оружием в начальный период войны. Одна из этих уникальных машин утонула во время отступления советских войск. Специальное подразделение, сформированное из бывших спортсменов, отправляется на спасение "Катюши".

Качество: BDRip 1080p | GER Transfer
Формат: MKV

Видео: MPEG-4 AVC, 8836 Кбит/с, 1920x1080, 25 Кадр/c
Аудио#1: Русский (AC3, 6 ch, 640 Кбит/с)
Аудио#2: Русский (DTS, 6 ch, 1509 Кбит/с)
скриншот  скриншот  скриншот  скриншот  скриншот  

Общее
Уникальный идентификатор : 176897953087592711169865072199246058219 (0x85154E767883B12EA15818052C8492EB)
Полное имя : D:ЗагрузкиPrikaz.Unichtozit.2019.x264.BDRip.(1080p).OlLanDGroup.mkv
Формат : Matroska
Версия формата : Version 4 / Version 2
Размер файла : 7,26 Гбайт
Продолжительность : 1 ч. 34 м.
Общий поток : 11,0 Мбит/сек
Название фильма : Приказ "Уничтожить".2019.Rip by: ollan
Дата кодирования : UTC 2020-03-17 05:33:08
Программа кодирования : mkvmerge v6.5.0 ('Isn't she lovely') built on Oct 20 2013 12:50:05
Библиотека кодирования : libebml v1.3.0 + libmatroska v1.4.1
Обложка : Yes
Attachments : Cover - Prikaz.Unichtozit.png

Видео
Идентификатор : 1
Формат : AVC
Формат/Информация : Advanced Video Codec
Профиль формата : High@L4.1
Настройки формата : CABAC / 4 Ref Frames
Параметр CABAC формата : Да
Параметр ReFrames формата : 4 кадра
Идентификатор кодека : V_MPEG4/ISO/AVC
Продолжительность : 1 ч. 34 м.
Битрейт : 8836 Кбит/сек
Ширина : 1920 пикселей
Высота : 1080 пикселей
Соотношение сторон : 16:9
Режим частоты кадров : Постоянный
Частота кадров : 25,000 кадров/сек
Цветовое пространство : YUV
Субдискретизация насыщенности : 4:2:0
Битовая глубина : 8 бит
Тип развёртки : Прогрессивная
Бит/(Пиксели*Кадры) : 0.170
Размер потока : 5,69 Гбайт (78%)
Библиотека кодирования : x264 core 146 r2538 121396c
Настройки программы : cabac=1 / ref=4 / deblock=1:-3:-3 / analyse=0x3:0x133 / me=umh / subme=11 / psy=1 / psy_rd=0.95:0.05 / mixed_ref=1 / me_range=64 / chroma_me=1 / trellis=2 / 8x8dct=1 / cqm=0 / deadzone=21,11 / fast_pskip=0 / chroma_qp_offset=-3 / threads=12 / lookahead_threads=3 / sliced_threads=0 / nr=0 / decimate=0 / interlaced=0 / bluray_compat=0 / constrained_intra=0 / bframes=10 / b_pyramid=2 / b_adapt=2 / b_bias=0 / direct=3 / weightb=1 / open_gop=0 / weightp=2 / keyint=250 / keyint_min=25 / scenecut=40 / intra_refresh=0 / rc_lookahead=40 / rc=2pass / mbtree=0 / bitrate=8836 / ratetol=1.0 / qcomp=0.60 / qpmin=0 / qpmax=69 / qpstep=4 / cplxblur=20.0 / qblur=0.5 / vbv_maxrate=50000 / vbv_bufsize=62500 / nal_hrd=none / filler=0 / ip_ratio=1.40 / pb_ratio=1.30 / aq=1:1.00
Язык : English
Default : Да
Forced : Нет

Аудио #1
Идентификатор : 2
Формат : AC-3
Формат/Информация : Audio Coding 3
Идентификатор кодека : A_AC3
Продолжительность : 1 ч. 34 м.
Вид битрейта : Постоянный
Битрейт : 640 Кбит/сек
Каналы : 6 каналов
Расположение каналов : Front: L C R, Side: L R, LFE
Частота : 48,0 КГц
Частота кадров : 31,250 кадров/сек (1536 SPF)
Битовая глубина : 16 бит
Метод сжатия : С потерями
Размер потока : 433 Мбайт (6%)
Заголовок : Лицензия
Язык : Russian
Service kind : Complete Main
Default : Да
Forced : Нет

Аудио #2
Идентификатор : 3
Формат : DTS
Формат/Информация : Digital Theater Systems
Идентификатор кодека : A_DTS
Продолжительность : 1 ч. 34 м.
Вид битрейта : Постоянный
Битрейт : 1509 Кбит/сек
Каналы : 6 каналов
Расположение каналов : Front: L C R, Side: L R, LFE
Частота : 48,0 КГц
Частота кадров : 93,750 кадра/сек (512 SPF)
Битовая глубина : 16 бит
Метод сжатия : С потерями
Размер потока : 1020 Мбайт (14%)
Заголовок : Лицензия
Язык : Russian
Default : Нет
Forced : Нет

Меню
00:00:00.000 : ru:Chapter 01
00:05:19.919 : ru:Chapter 02
00:10:22.359 : ru:Chapter 03
00:15:07.240 : ru:Chapter 04
00:20:39.640 : ru:Chapter 05
00:25:01.679 : ru:Chapter 06
00:30:03.840 : ru:Chapter 07
00:34:13.160 : ru:Chapter 08
00:40:34.480 : ru:Chapter 09
00:45:17.719 : ru:Chapter 10
00:51:32.360 : ru:Chapter 11
00:57:19.680 : ru:Chapter 12
01:11:21.280 : ru:Chapter 13
01:17:28.040 : ru:Chapter 14
01:24:09.800 : ru:Chapter 15
01:28:45.040 : ru:Chapter 16
01:34:32.000 : ru:Chapter 17

piratbit.pw
Kbober100 писал(а):

Фильм сделан по мини-сериалу Привет от Катюши (2013), выдают на blu-ray.com и кинопоиске как новый фильм 2019 года.



Скачать Приказ "Уничтожить" через торрент https://a.radikal.ru/a28/2003/f8/74117c809985.jpg Скачать фильм Приказ "Уничтожить" через торрент бесплантно в хорошем качестве Описание: Фильм рассказывает о знаменитой "Катюше", которая была секретным оружием в начальный период войны. Одна из этих уникальных машин ... 10 10 4
Info! Золотая раздача, скачанное не засчитывается.
Торрент: Зарегистрирован [2020-03-17 07:15] · скачан: 176 раз
Статус: √ проверено
Размер: 7.26 GB
Как cкачать? Как скачать Приказ "Уничтожить" через торрент | qTorrent

28-11-2019 20:33  

Отключить всю рекламу на сайте

    Дорогой пользователь! Огромная просьба, поблагодарите релизера, оцените раздачу и оставьте свои комментарий, если Вы скачали Приказ "Уничтожить" через торрент бесплатно! Внесите свою лепту в развитие PiratBit!
    Комментировать посты могут только пользователи прошедшие не сложную регистрацию
    Показать сообщения:    

    Приказ "Уничтожить" через торрент
    Скачать бесплатно Приказ "Уничтожить"
    Приказ "Уничтожить" скачать торрент
    Приказ "Уничтожить" смотреть онлайн
    Cкачать фильм Приказ "Уничтожить" бесплатно
    Приказ "Уничтожить" скачать торрент в хорошем качестве
    Приказ "Уничтожить" смотреть онлайн бесплатно в хорошем качестве


    Вы не можете начинать темы
    Вы не можете отвечать на сообщения
    Вы не можете редактировать свои сообщения
    Вы не можете удалять свои сообщения
    Вы не можете голосовать в опросах
    Вы не можете прикреплять файлы к сообщениям
    Вы можете скачивать файлы