Ссылка на приватное зеркало всего за 1$. Внимание количество ограничено!!!

iTunes

iTunes

iTunes

1

iTunes

iTunes

iTunes

iTunes

iTunes

30
pack

Новость дня

ВАЖНО

!!Акция!!

Alien_RageХит недели

RePack

Resident Evil 21

ИГРА 18+

pack

RePack

jed

!!Акция!!

Alien_Rage

RePack

fifa19

RePack

Assassins Creed: Odyssey

RePack

NEED FOR SPEED™ PAYBACK

4 сезон

9 сезон

Бесстыжие 9 сезон

Все сериалы

все сериалы на PB.wtf

RePack

FAR CRY 5
  

Мир Дикого Запада / Westworld / Сезон: 3 / Серии: 1-3 из 10 (Ричард Дж. Льюис, Джонатан Нолан, Фред Туа) [2020, фантастика, драма, детектив, вестерн, WEBRip 720p] DUB [Кравец-Рекордз / Amedia] piratbit.pw

Мир Дикого Запада через торрент piratbit.pw

Раздают: 3 [ 1 MB/s ] Качают: 2 [ 0 KB/s ]
Размер: 7.37 GB | Добавлен: 17 ч. назад | Торрент скачан:5 раз
Скачать  

16-03-2020 16:10 Мир Дикого Запада Скачать торрент  

Мир Дикого Запада | Westworld
Год выпуска: 2020
Страна: США
Жанр: фантастика, драма, детектив, вестерн
Продолжительность: ~ 01:00:09
Перевод: Дублированный | "Кравец-Рекордз" по заказу Amedia
Субтитры: Русские (Forced, Full), английские (SDH)

Режиссер: Ричард Дж. Льюис, Джонатан Нолан, Фред Туа

rating

В ролях: Эван Рэйчел Вуд, Тэнди Ньютон, Джеффри Райт, Эд Харрис, Тесса Томпсон, Джеймс Марсден, Энтони Хопкинс, Анджела Сарафян, Люк Хемсворт, Саймон Куотерман

Описание: В футуристическом парке развлечений «Мир Дикого Запада» специально сконструированные андроиды выполняют любые прихоти посетителей, чтобы те чувствовали безнаказанность и полную свободу действий. Если робота убили - не беда, техники его починят, сотрут память и снова поставят в строй, навстречу новому дню и новым людским прихотям. Но оказывается, что далеко не все роботы теряют воспоминания.

Качество: WEBRip 720p
Формат: MKV

Видео: 1280x720 at 23.976 fps, MPEG-4 AVC, ~4400 kbps avg
Аудио#1 Russian: 48 kHz, AC3, 3/2 (L,C,R,l,r) + LFE ch, ~384 kbps avg |Дубляж, Кравец-Рекордз по заказу Amedia|
Аудио#2 English: 48 kHz, AC3, 3/2 (L,C,R,l,r) + LFE ch, ~640 kbps avg
скриншот  скриншот  скриншот  скриншот  скриншот  

Общее
Уникальный идентификатор : 236218195390926353647756137305975905303 (0xB1B5F83721D53D649FA0B7CC3A795C17)
Полное имя : C:\Westworld.S03.720p.AMZN.WEBRip.DDP5.1.x264-NTb-RUTOR\Westworld.S03E01.Parce.Domine.720p.AMZN.WEBRip.DDP5.1.x264-NTb.mkv
Формат : Matroska
Версия формата : Version 2
Размер файла : 2,71 Гбайт
Продолжительность : 1 ч. 11 м.
Общий поток : 5397 Кбит/сек
Название фильма : Westworld.S03E01.Parce.Domine
Дата кодирования : UTC 2020-03-27 08:22:03
Программа кодирования : mkvmerge v5.8.0 ('No Sleep / Pillow') built on Sep 2 2012 15:37:04
Библиотека кодирования : libebml v1.2.3 + libmatroska v1.3.0

Видео
Идентификатор : 1
Формат : AVC
Формат/Информация : Advanced Video Codec
Профиль формата : High@L3.1
Настройки формата : CABAC / 4 Ref Frames
Параметр CABAC формата : Да
Параметр RefFrames формата : 4 кадра
Идентификатор кодека : V_MPEG4/ISO/AVC
Продолжительность : 1 ч. 11 м.
Вид битрейта : Постоянный
Битрейт : 4266 Кбит/сек
Номинальный битрейт : 6000 Кбит/сек
Ширина : 1280 пикселей
Высота : 720 пикселей
Соотношение сторон : 16:9
Режим частоты кадров : Постоянный
Частота кадров : 23,976 (24000/1001) кадра/сек
Цветовое пространство : YUV
Субдискретизация насыщенности : 4:2:0
Битовая глубина : 8 бит
Тип развёртки : Прогрессивная
Бит/(Пиксели*Кадры) : 0.193
Размер потока : 2,14 Гбайт (79%)
Язык : English
Default : Да
Forced : Нет
Цветовой диапазон : Limited
Основные цвета : BT.709
Характеристики трансфера : BT.709
Коэффициенты матрицы : BT.709

Аудио #1
Идентификатор : 2
Формат : AC-3
Формат/Информация : Audio Coding 3
Коммерческое название : Dolby Digital
Идентификатор кодека : A_AC3
Продолжительность : 1 ч. 11 м.
Вид битрейта : Постоянный
Битрейт : 384 Кбит/сек
Каналы : 6 каналов
ChannelLayout : L R C LFE Ls Rs
Частота : 48,0 КГц
Частота кадров : 31,250 кадров/сек (1536 SPF)
Битовая глубина : 16 бит
Метод сжатия : С потерями
Размер потока : 197 Мбайт (7%)
Заголовок : Кравец-Рекордз по заказу Amedia
Язык : Russian
ServiceKind/String : Complete Main
Default : Да
Forced : Нет

Аудио #2
Идентификатор : 3
Формат : AC-3
Формат/Информация : Audio Coding 3
Коммерческое название : Dolby Digital
Идентификатор кодека : A_AC3
Продолжительность : 1 ч. 11 м.
Вид битрейта : Постоянный
Битрейт : 640 Кбит/сек
Каналы : 6 каналов
ChannelLayout : L R C LFE Ls Rs
Частота : 48,0 КГц
Частота кадров : 31,250 кадров/сек (1536 SPF)
Битовая глубина : 16 бит
Метод сжатия : С потерями
Размер потока : 329 Мбайт (12%)
Язык : English
ServiceKind/String : Complete Main
Default : Нет
Forced : Нет

Текст #1
Идентификатор : 4
Формат : UTF-8
Идентификатор кодека : S_TEXT/UTF8
Идентификатор кодека/Информация : UTF-8 Plain Text
Заголовок : Forced
Язык : Russian
Default : Да
Forced : Нет

Текст #2
Идентификатор : 5
Формат : UTF-8
Идентификатор кодека : S_TEXT/UTF8
Идентификатор кодека/Информация : UTF-8 Plain Text
Заголовок : Full
Язык : Russian
Default : Нет
Forced : Нет

Текст #3
Идентификатор : 6
Формат : UTF-8
Идентификатор кодека : S_TEXT/UTF8
Идентификатор кодека/Информация : UTF-8 Plain Text
Заголовок : SDH
Язык : English
Default : Нет
Forced : Нет

Когда раздача ведётся путём добавления новых серий, при каждом добавлении создётся новый торрент. Чтобы начать докачку новой серии, пользователям необходимо сделать следующее:
(1) остановить скачивание,
(2) удалить старый торрент у себя из клиента (старые серии удалять не надо),
(3) скачать новый торрент и запустить его у себя в клиенте вместо старого, при этом указать клиенту путь в старую папку, куда и должно происходить скачивание новых серий.
Ваш клиент при этом должен произвести хеширование (проверку) старой папки (если не производит сам - помогите ему сделать это), и будет докачивать только те серии, которых у вас ещё нет. Старые серии при этом не удаляются, а продолжают раздаваться!
Eсли вы уже удалили старые серии, то предотвратить повторную закачку старых серий можно, отжав галочку в соответсвующих местах при запуске нового торрента. По возможности, желательно не удалять старые серии как можно дольше, чтобы релизёр не столько продолжал раздавать старые серии, а смог сконцентрироваться на новых.

piratbit.pw



Скачать Мир Дикого Запада через торрент https://funkyimg.com/i/339gV.png Скачать фильм Мир Дикого Запада через торрент бесплантно в хорошем качестве Описание: В футуристическом парке развлечений «Мир Дикого Запада» специально сконструированные андроиды выполняют любые прихоти ... 9.9 10 8
Торрент: Зарегистрирован [2020-04-01 09:33] · скачан: 5 раз
Статус: √ проверено
Размер: 7.37 GB
Как cкачать? Как скачать Мир Дикого Запада через торрент | qTorrent

% Раздел Тема Автор DL S | L
Зарубежные сериалы [ 5.06 GB ] Мир Дикого Запада / Westworld / Сезон: 3 / Серии: 1- из 8 [2020 WEB-DL 1080p] MVO [TVShows] bober100 Скачать
1 | 1
T Зарубежные сериалы [ 4.42 GB ] Мир Дикого Запада / Westworld / Сезон: 3 / Серии: 1-2 из 10 [2020 WEBRip 1080p] MVO [Octopus] bober100 Скачать
2 | 0
Зарубежные сериалы [ 10.28 GB ] Мир Дикого Запада / Westworld / Сезон: 3 / Серии: 1-2 из 10 [2020 WEB-DL 1080p] DUB [Кравец-Рекордз / Amedia] +3MVO bober100 Скачать
3 | 0
Зарубежные сериалы [ 976 MB ] Мир Дикого Запада / Westworld / Сезон: 3 / Серии: 1- из 10 [2020 WEB-DLRip] MVO [NewStudio] bober100 Скачать
1 | 0
Зарубежные сериалы [ 6.04 GB ] Мир Дикого Запада / Westworld / Сезон: 3 / Серии: 1-2 из 10 [2020 WEB-DL 720p] DUB [Кравец-Рекордз / Amedia] +3MVO bober100 Скачать
3 | 1
Зарубежные сериалы [ 7.45 GB ] Мир Дикого Запада / Westworld / Сезон: 3 / Серии: 1-3 из 10 [2020 WEB-DL 720p] MVO [NewStudio] bober100 Скачать
2 | 0
Зарубежные сериалы [ 13.67 GB ] Мир Дикого Запада / Westworld / Сезон: 3 / Серии: 1-3 из 8 [2020 WEB-DL 1080p] MVO [AlexFilm] bober100 Скачать
2 | 4

28-11-2019 20:33  

Отключить всю рекламу на сайте

    Дорогой пользователь! Огромная просьба, поблагодарите релизера, оцените раздачу и оставьте свои комментарий, если Вы скачали Мир Дикого Запада через торрент бесплатно! Внесите свою лепту в развитие PiratBit!
    Комментировать посты могут только пользователи прошедшие не сложную регистрацию
    Показать сообщения:    

    Мир Дикого Запада через торрент
    Скачать бесплатно Мир Дикого Запада
    Мир Дикого Запада скачать торрент
    Мир Дикого Запада смотреть онлайн
    Cкачать фильм Мир Дикого Запада бесплатно
    Мир Дикого Запада скачать торрент в хорошем качестве
    Мир Дикого Запада смотреть онлайн бесплатно в хорошем качестве


    Вы не можете начинать темы
    Вы не можете отвечать на сообщения
    Вы не можете редактировать свои сообщения
    Вы не можете удалять свои сообщения
    Вы не можете голосовать в опросах
    Вы не можете прикреплять файлы к сообщениям
    Вы можете скачивать файлы