Ссылка на приватное зеркало всего за 1$. Внимание количество ограничено!!!

iTunes

1+1

iTunes

мы

iTunes

1

iTunes

Джокер

Пифагор

Ведьмак / The Witcher сериал

iTunes

ПШазам

iTunes

Оно 2

iTunes

30
pack

Новость дня

ВАЖНО

!!Акция!!

Alien_RageХит недели

RePack

Resident Evil 21

ИГРА 18+

pack

RePack

jed

!!Акция!!

Alien_Rage

RePack

fifa19

RePack

Assassins Creed: Odyssey

RePack

NEED FOR SPEED™ PAYBACK

4 сезон

9 сезон

Бесстыжие 9 сезон

Все сериалы

все сериалы на PB.wtf

RePack

FAR CRY 5
  

Камуфляж и шпионаж / Spies in Disguise (Ник Бруно, Трой Квон) [2019, Мультфильм, фантастика, боевик, комедия, приключения, семейный, BDRip 720p] DUB [iTunes] piratbit.pw

Камуфляж и шпионаж через торрент piratbit.pw

Раздают: 72 [ 5 MB/s ] Качают: 1 [ 0 KB/s ]
Размер: 5.98 GB | Добавлен: 18 д. назад | Торрент скачан:503 раза
Скачать  

13-03-2020 03:38 Камуфляж и шпионаж Скачать торрент  

Камуфляж и шпионаж | Spies in Disguise
Год выпуска: 2019
Страна: США
Студия: Twentieth Century Fox, Blue Sky Studios, Chernin Entertainment
Жанр: Мультфильм, анимационный, фантастика, боевик, комедия, приключения, семейный
Продолжительность: 01:41:51
Перевод: Дублированный | iTunes
Субтитры: Русские (Forced, full), английские, французские

Режиссер: Ник Бруно, Трой Квон

rating

В ролях: Карен Гиллан, Рэйчел Броснахэн, Том Холланд, Уилл Смит, Рашида Джонс, Бен Мендельсон, Риба МакИнтайр, Стефания Спампинато, Маси Ока, Карла Хименес, D.J. Халед

Описание: Супершпион Лэнс Стерлинг — лучший в своём деле. Он способен проникнуть на любой объект, победить любого злодея и соблазнить любую женщину. В опасной профессии ему помогают разные гаджеты, которые для него собирает Уолтер. Но человеческая форма — не самый идеальный вариант для шпионажа, и верный изобретатель придумывает решение и превращает Лэнса в голубя. Ведь этих городских птиц никто не замечает, а следовательно, они могут следить за кем угодно. Только вот Лэнса такой поворот не устраивает.

Качество: BDRip 720p
Формат: MKV

Видео: MPEG-4 AVC, 1280x536, 7377 Kbit/s, 23.976 fps
Аудио #01: 48 kHz, AC3, 5.1, 384 Kbps | iTunes | RUS |
Аудио #02: 48 kHz, AC3, 5.1, 640 Kbps | Оригинал | ENG |
скриншот  скриншот  скриншот  скриншот  скриншот  

General
Unique ID : 307430159077462148269094096190212697650 (0xE748E5195039E19B0B0993CC36EC6E32)
Complete name : D:Spies.in.Disguise.2019.BDRip.720p.seleZen.mkv
Format : Matroska
Format version : Version 4
File size : 5.98 GiB
Duration : 1 h 41 min
Overall bit rate : 8 403 kb/s
Movie name : Spies.in.Disguise.2019. from селезень
Encoded date : UTC 2020-03-13 02:06:23
Writing application : mkvmerge v41.0.0 ('Smarra') 64-bit
Writing library : libebml v1.3.9 + libmatroska v1.5.2

Video
ID : 1
Format : AVC
Format/Info : Advanced Video Codec
Format profile : High@L4.1
Format settings : CABAC / 8 Ref Frames
Format settings, CABAC : Yes
Format settings, Reference : 8 frames
Codec ID : V_MPEG4/ISO/AVC
Duration : 1 h 41 min
Bit rate : 7 377 kb/s
Width : 1 280 pixels
Height : 536 pixels
Display aspect ratio : 2.40:1
Frame rate mode : Constant
Frame rate : 23.976 (24000/1001) FPS
Color space : YUV
Chroma subsampling : 4:2:0
Bit depth : 8 bits
Scan type : Progressive
Bits/(Pixel*Frame) : 0.448
Stream size : 5.25 GiB (88%)
Title : playHD
Writing library : x264 core 159 r2991 1771b55
Encoding settings : cabac=1 / ref=8 / deblock=1:-3:-3 / analyse=0x3:0x133 / me=umh / subme=10 / psy=1 / psy_rd=1.00:0.00 / mixed_ref=1 / me_range=32 / chroma_me=1 / trellis=2 / 8x8dct=1 / cqm=0 / deadzone=21,11 / fast_pskip=0 / chroma_qp_offset=-2 / threads=12 / lookahead_threads=2 / sliced_threads=0 / nr=0 / decimate=0 / interlaced=0 / bluray_compat=0 / constrained_intra=0 / bframes=8 / b_pyramid=2 / b_adapt=2 / b_bias=0 / direct=3 / weightb=1 / open_gop=0 / weightp=2 / keyint=250 / keyint_min=23 / scenecut=40 / intra_refresh=0 / rc=crf / mbtree=0 / crf=15.7 / qcomp=0.60 / qpmin=0 / qpmax=69 / qpstep=4 / ip_ratio=1.30 / pb_ratio=1.20 / aq=3:0.85 / zones=136147,146519,b=0.7
Language : English
Default : Yes
Forced : No

Audio #1
ID : 2
Format : AC-3
Format/Info : Audio Coding 3
Commercial name : Dolby Digital
Codec ID : A_AC3
Duration : 1 h 41 min
Bit rate mode : Constant
Bit rate : 384 kb/s
Channel(s) : 6 channels
Channel layout : L R C LFE Ls Rs
Sampling rate : 48.0 kHz
Frame rate : 31.250 FPS (1536 SPF)
Compression mode : Lossy
Stream size : 280 MiB (5%)
Title : Dubbing [iTunes]
Language : Russian
Service kind : Complete Main
Default : Yes
Forced : Yes

Audio #2
ID : 3
Format : AC-3
Format/Info : Audio Coding 3
Commercial name : Dolby Digital
Codec ID : A_AC3
Duration : 1 h 41 min
Bit rate mode : Constant
Bit rate : 640 kb/s
Channel(s) : 6 channels
Channel layout : L R C LFE Ls Rs
Sampling rate : 48.0 kHz
Frame rate : 31.250 FPS (1536 SPF)
Compression mode : Lossy
Stream size : 466 MiB (8%)
Language : English
Service kind : Complete Main
Default : No
Forced : No

Text #1
ID : 4
Format : UTF-8
Codec ID : S_TEXT/UTF8
Codec ID/Info : UTF-8 Plain Text
Duration : 1 h 40 min
Bit rate : 2 b/s
Count of elements : 48
Stream size : 1.85 KiB (0%)
Title : Forced
Language : Russian
Default : Yes
Forced : Yes

Text #2
ID : 5
Format : UTF-8
Codec ID : S_TEXT/UTF8
Codec ID/Info : UTF-8 Plain Text
Duration : 1 h 40 min
Bit rate : 79 b/s
Count of elements : 1455
Stream size : 58.7 KiB (0%)
Title : Full
Language : Russian
Default : No
Forced : No

Text #3
ID : 6
Format : UTF-8
Codec ID : S_TEXT/UTF8
Codec ID/Info : UTF-8 Plain Text
Duration : 1 h 18 min
Bit rate : 0 b/s
Count of elements : 6
Stream size : 142 Bytes (0%)
Title : Forced Only
Language : English
Default : No
Forced : No

Text #4
ID : 7
Format : UTF-8
Codec ID : S_TEXT/UTF8
Codec ID/Info : UTF-8 Plain Text
Duration : 1 h 31 min
Bit rate : 60 b/s
Count of elements : 1573
Stream size : 40.7 KiB (0%)
Language : English
Default : No
Forced : No

Text #5
ID : 8
Format : UTF-8
Codec ID : S_TEXT/UTF8
Codec ID/Info : UTF-8 Plain Text
Duration : 1 h 41 min
Bit rate : 67 b/s
Count of elements : 1905
Stream size : 50.0 KiB (0%)
Title : SDH
Language : English
Default : No
Forced : No

Text #6
ID : 9
Format : UTF-8
Codec ID : S_TEXT/UTF8
Codec ID/Info : UTF-8 Plain Text
Duration : 1 h 40 min
Bit rate : 60 b/s
Count of elements : 1463
Stream size : 44.3 KiB (0%)
Language : French
Default : No
Forced : No

Menu
00:00:00.000 : :Chapter 1
00:04:09.499 : :Chapter 2
00:06:54.497 : :Chapter 3
00:11:53.838 : :Chapter 4
00:15:31.013 : :Chapter 5
00:20:35.484 : :Chapter 6
00:23:20.858 : :Chapter 7
00:26:42.434 : :Chapter 8
00:30:59.524 : :Chapter 9
00:36:06.581 : :Chapter 10
00:41:34.951 : :Chapter 11
00:45:41.947 : :Chapter 12
00:49:57.786 : :Chapter 13
00:53:58.902 : :Chapter 14
00:56:34.308 : :Chapter 15
01:00:06.770 : :Chapter 16
01:08:46.914 : :Chapter 17
01:12:51.784 : :Chapter 18
01:17:34.275 : :Chapter 19
01:20:18.939 : :Chapter 20
01:23:19.077 : :Chapter 21
01:26:05.243 : :Chapter 22
01:29:47.173 : :Chapter 23
01:33:08.875 : :Chapter 24

piratbit.pw



Скачать Камуфляж и шпионаж через торрент https://img10.lostpic.net/2020/03/13/f8c8aa5593da56435e616ada9cbe4761.jpg Скачать фильм Камуфляж и шпионаж через торрент бесплантно в хорошем качестве Описание: Супершпион Лэнс Стерлинг — лучший в своём деле. Он способен проникнуть на любой объект, победить любого злодея и соблазнить любую ... 10 10 10
Info! Золотая раздача, скачанное не засчитывается.
Торрент: Зарегистрирован [2020-03-13 03:38] · скачан: 503 раз
Статус: √ проверено
Размер: 5.98 GB
Как cкачать? Как скачать Камуфляж и шпионаж через торрент | qTorrent

% Раздел Тема Автор DL S | L
Ultra HD (UHD: 2K, 4K, 8K) [ 14.78 GB ] Камуфляж и шпионаж / Spies in Disguise [2019 Мультфильм UHD BDRip 2160p ] DUB bober100 Скачать
3 | 0
Иностранные мультфильмы [ 1.42 GB ] Камуфляж и шпионаж / Spies in Disguise [2019 Мультфильм BDRip] - Twi7ter Скачать
344 | 29
Иностранные мультфильмы [ 744 MB ] Камуфляж и шпионаж / Spies in Disguise [2019 Мультфильм HDRip] bober100 Скачать
11 | 0
Иностранные мультфильмы [ 1.42 GB ] Камуфляж и шпионаж / Spies in Disguise [2019 Мультфильм BDRip] bober100 Скачать
43 | 0
Иностранные мультфильмы [ 1.41 GB ] Камуфляж и шпионаж / Spies in Disguise [2019 Мультфильм BDRip-AVC] DUB [] bober100 Скачать
21 | 1
Зарубежные Мультфильмы (BDRip 1080p, 720p, Blu-ray, BD-Remux) [ 20.56 GB ] Камуфляж и шпионаж / Spies in Disguise [2019 Мультфильм BD Remux 1080p] bober100 Скачать
6 | 0
Зарубежные Мультфильмы (BDRip 1080p, 720p, Blu-ray, BD-Remux) [ 11.12 GB ] Камуфляж и шпионаж / Spies in Disguise [2019 Мультфильм BDRip 1080p] bober100 Скачать
33 | 3

28-11-2019 20:33  

Отключить всю рекламу на сайте

    Дорогой пользователь! Огромная просьба, поблагодарите релизера, оцените раздачу и оставьте свои комментарий, если Вы скачали Камуфляж и шпионаж через торрент бесплатно! Внесите свою лепту в развитие PiratBit!
    Комментировать посты могут только пользователи прошедшие не сложную регистрацию
    Показать сообщения:    

    Камуфляж и шпионаж через торрент
    Скачать бесплатно Камуфляж и шпионаж
    Камуфляж и шпионаж скачать торрент
    Камуфляж и шпионаж смотреть онлайн
    Cкачать фильм Камуфляж и шпионаж бесплатно
    Камуфляж и шпионаж скачать торрент в хорошем качестве
    Камуфляж и шпионаж смотреть онлайн бесплатно в хорошем качестве


    Вы не можете начинать темы
    Вы не можете отвечать на сообщения
    Вы не можете редактировать свои сообщения
    Вы не можете удалять свои сообщения
    Вы не можете голосовать в опросах
    Вы не можете прикреплять файлы к сообщениям
    Вы можете скачивать файлы