Ссылка на приватное зеркало нашего сайта всего за 1$. Внимание количество ограничено!!!

2 сезон

iTunes

1 сезон

1

2 сезон

2 сезон

iTunes

1 сезон

RePack

30

Новинка

ВАЖНО

ИГРА 18+

pack

RePack

MK11
pack

Забери бонус

RePack

jed

!!Акция!!

Alien_Rage

RePack

fifa19

RePack

Assassins Creed: Odyssey

RePack

NEED FOR SPEED™ PAYBACK

4 сезон

9 сезон

Бесстыжие 9 сезон

Все сериалы

все сериалы на PB.wtf

RePack

FAR CRY 5
  

Прекрасная эпоха / La Belle Époque (Николя Бедос) [2019 г., драма, мелодрама, комедия, HDRip, "Дубляж iTunes"] piratbit.pw

Прекрасная эпоха через торрент piratbit.pw

Размер: 708 MB | Добавлен: 8 мес. назад | Торрент скачан:114 раз
Скачать  

12-03-2020 18:12 Прекрасная эпоха Скачать торрент  

Прекрасная эпоха / La Belle Époque
Год выпуска: 2019
Страна: Франция, Бельгия / Les Films du Kiosque, Pathé, Orange Studio
Жанр: драма, мелодрама, комедия
Продолжительность: 01:55:00
Перевод: Дубляж (iTunes)

Режиссер: Николя Бедос

rating

В ролях: Даниель Отой, Гийом Кане, Дория Тилье, Фанни Ардан, Пьер Ардити, Дени Подалидес, Микаэль Коэн, Жанн Арене, Bertrand Poncet, Бруно Раффаэлли

Описание: Что если бы вы могли отправиться в любое время в прошлом по своему выбору? Именно такую услугу предоставляет компания, которая готова скрупулёзно восстановить детали любой эпохи на заказ. Одним из ее клиентов становится талантливый художник, переживающий кризис в отношениях со своей любимой женой. Он использует этот шанс, чтобы снова пережить тот день, когда много лет назад он встретил любовь всей своей жизни.

Качество: HDRip
Формат: AVI
Видео кодек: DivX
Аудио кодек: MP3
Видео: 672x280 (2.40:1), 24.000 fps, DivX Codec 4.x ~723 kbps avg, 0.16 bit/pixel
Аудио: 48 kHz, MPEG Layer 3, 2 ch, ~128.00 kbps avg
скриншот   скриншот   скриншот   скриншот   скриншот   скриншот   скриншот   скриншот  

Общее
Полное имя : F:\ФИЛЬМЫ\Прекрасная эпоха.2019.D.HDRip.avi
Формат : AVI
Формат/Информация : Audio Video Interleave
Размер файла : 708 Мбайт
Продолжительность : 1 ч. 55 м.
Общий поток : 861 Кбит/сек
Программа кодирования : VirtualDubMod 1.5.10.3 | www.virtualdub-fr.org || (build 2550/release)
Библиотека кодирования : VirtualDubMod build 2550/release

Видео
Идентификатор : 0
Формат : MPEG-4 Visual
Профиль формата : Advanced Simple@L5
Настройки формата : BVOP3 / GMC3 / QPel
Параметр BVOP формата : 3
Параметр QPel формата : Да
Параметр GMC формата : 3 точки перехода
Параметр матрицы формата : Default (MPEG)
Идентификатор кодека : DIVX
Идентификатор кодека/Информация : Project Mayo
Идентификатор кодека/Подсказка : DivX 4
Продолжительность : 1 ч. 55 м.
Битрейт : 723 Кбит/сек
Ширина : 672 пикселя
Высота : 280 пикселей
Соотношение сторон : 2,40:1
Частота кадров : 24,000 кадра/сек
Цветовое пространство : YUV
Субдискретизация насыщенности : 4:2:0
Битовая глубина : 8 бит
Тип развёртки : Прогрессивная
Метод сжатия : С потерями
Бит/(Пиксели*Кадры) : 0.160
Размер потока : 595 Мбайт (84%)
Библиотека кодирования : XviD 1.2.1 (UTC 2008-12-04)

Аудио
Идентификатор : 1
Формат : MPEG Audio
Версия формата : Version 1
Профиль формата : Layer 3
Настройки формата : Joint stereo
Идентификатор кодека : 55
Идентификатор кодека/Подсказка : MP3
Продолжительность : 1 ч. 54 м.
Вид битрейта : Постоянный
Битрейт : 128 Кбит/сек
Каналы : 2 канала
Частота : 48,0 КГц
Частота кадров : 41,667 кадра/сек (1152 SPF)
Метод сжатия : С потерями
Размер потока : 105 Мбайт (15%)
Выравнивание : Соединение по промежуткам
Продолжительность промежутка : 42 мс. (1,00 видеокадр)
Время предзагрузки промежутка : 504 мс.
Библиотека кодирования : LAME3.99r
Настройки программы : -m j -V 4 -q 2 -lowpass 17 -b 128

piratbit.pw



Скачать Прекрасная эпоха через торрент http://pic1.kartinco.top/images/12/orz2g.jpg Скачать фильм Прекрасная эпоха через торрент бесплантно в хорошем качестве Описание: Что если бы вы могли отправиться в любое время в прошлом по своему выбору? Именно такую услугу предоставляет компания, которая ... 10 10 5
Торрент: Зарегистрирован [2020-03-12 18:12] · скачан: 114 раз
Статус: √ проверено
Размер: 708 MB
Как cкачать? Как скачать Прекрасная эпоха через торрент | qTorrent

% Раздел Тема Автор DL S | L
Фильмы (Blu-ray, BD-Remux, HDDVD) [ 27.31 GB ] Прекрасная эпоха / La Belle Époque [2019 BD Remux 1080p] DUB bober100 Скачать
1 | 0
Фильмы [HD 720p, 1080p] (Хороший звук DUB, MVO) [ 7.84 GB ] Прекрасная эпоха / La Belle Époque [2019 BDRip 720p] DUB bober100 Скачать
2 | 0
Фильмы 2019-2020 [DVDrip, WEB-DLRip, HDrip] (DUB, MVO) [ 1.41 GB ] Прекрасная эпоха / La Belle Époque [2019 BDRip] bober100 Скачать
10 | 0
Фильмы [HD 720p, 1080p] (Хороший звук DUB, MVO) [ 14.5 GB ] Прекрасная эпоха / La Belle Époque [2019 BDRip 1080p] DUB bober100 Скачать
1 | 0

28-11-2019 20:33  

Отключить всю рекламу на сайте

    Дорогой пользователь! Огромная просьба, поблагодарите релизера, оцените раздачу и оставьте свои комментарий, если Вы скачали Прекрасная эпоха через торрент бесплатно! Внесите свою лепту в развитие PiratBit!
    Комментировать посты могут только пользователи прошедшие не сложную регистрацию
    Показать сообщения:    

    Прекрасная эпоха через торрент
    Скачать бесплатно Прекрасная эпоха
    Прекрасная эпоха скачать торрент
    Прекрасная эпоха смотреть онлайн
    Cкачать фильм Прекрасная эпоха бесплатно
    Прекрасная эпоха скачать торрент в хорошем качестве
    Прекрасная эпоха смотреть онлайн бесплатно в хорошем качестве


    Вы не можете начинать темы
    Вы не можете отвечать на сообщения
    Вы не можете редактировать свои сообщения
    Вы не можете удалять свои сообщения
    Вы не можете голосовать в опросах
    Вы не можете прикреплять файлы к сообщениям
    Вы можете скачивать файлы