Ссылка на приватное зеркало нашего сайта всего за 1$. Внимание количество ограничено!!!

2 сезон

iTunes

1 сезон

1

iTunes

iTunes

iTunes

1 сезон

RePack

30

ИГРА 18+

pack

ВАЖНО

!!Акция!!

Alien_RageХит недели

RePack

MK11
pack

Забери бонус

RePack

jed

!!Акция!!

Alien_Rage

RePack

fifa19

RePack

Assassins Creed: Odyssey

RePack

NEED FOR SPEED™ PAYBACK

4 сезон

9 сезон

Бесстыжие 9 сезон

Все сериалы

все сериалы на PB.wtf

RePack

FAR CRY 5
  

Цветок кактуса / Cactus Flower (Джин Сэкс) [1969, мелодрама, комедия, BDRip 720p by msltel] DUB, 3 x MVO, DVO, AVO piratbit.pw

Цветок кактуса через торрент piratbit.pw

Размер: 6.19 GB | Добавлен: 7 мес. назад | Торрент скачан:0 раз
Скачать  

12-03-2020 05:16 Цветок кактуса Скачать торрент  

Название: Цветок кактуса
Оригинальное название: Cactus Flower
Год выпуска: 1969
Страна: США
Жанр: мелодрама, комедия
Продолжительность: 01:43:49
Перевод: дублированный, профессиональный многоголосый, профессиональный двухголосый, авторский
Режиссер: Джин Сэкс
В ролях: Уолтер Мэттау, Ингрид Бергман, Голди Хоун, Джек Уэстон, Рик Ленц, Вито Скотти, Ирен Херви, Ив Брюс, Ирвин Чарон, Мэттью Сакс, Линда Бертон, Дон Фурно, Тани Гатри, Ли Харрис, Питер Моррисон Джейкобс, Рик Лэмсон, Мэри Джейн Манглер, Барбара Рэндольф

О фильме: Джулиан Уинстон, смешной холостяк и бабник, под влиянием жизненных обстоятельств попадает в различные комические ситуации. Уинстон встречается с головокружительной блондинкой Тони, обманывая её и говоря, что у него есть жена и трое детей, чтобы оградить себя от серьёзных отношений с нею. Но когда он узнаёт, что она пыталась совершить самоубийство из-за него, твердо обещает жениться на ней. Тони добивается встречи с "женой" своего будущего мужа, в роли которой, по просьбе Джулиана, выступает его медсестра Стефани. Схема игры, разработанная Уинстоном приводит к непредсказуемым пересечениям и смешным сюрпризам для каждого... Фильм по мотивам бродвейской постановки Эйба Берроуза, основанной, в свою очередь, на тексте французской пьесы «Fleur de cactus».



Качество: BDRip 720p
Формат: MKV
Видео: MPEG-4 AVC, 7193 Кбит/с, 1280x690
Аудио 1: русский, AC3, 192 kbps, 2 ch, 48 kHz [дублированный, Мосфильм со вставками MVO]
Аудио 2: русский, AC3, 192 kbps, 2 ch, 48 kHz [закадровый многоголосый, DVD Classic]
Аудио 3: русский, AC3, 192 kbps, 2 ch, 48 kHz [закадровый многоголосый, DVD Магия]
Аудио 4: русский, AC3, 192 kbps, 2 ch, 48 kHz [закадровый многоголосый, Film Prestige]
Аудио 5: русский, AC3, 192 kbps, 2 ch, 48 kHz [закадровый двухголосый, HTB+]
Аудио 6: русский, AC3, 192 kbps, 2 ch, 48 kHz [авторский, Андрей Гаврилов]
Аудио 7: английский, AC3, 192 kbps, 2 ch, 48 kHz [оригинал]
Субтитры 1: русские
Субтитры 2: английские
Главы/чаптеры
Общее
Уникальный идентификатор : 184803305288440817546328029820563338007 (0x8B07D26B29ACA77AB2A179EEBA51B317)
Полное имя : D:\Video\Цветок кактуса.1969.BDRip 720p by msltel.mkv
Формат : Matroska
Версия формата : Version 4
Размер файла : 6,19 Гбайт
Продолжительность : 1 ч. 43 м.
Общий поток : 8541 Кбит/сек
Название фильма : Rip by msltel
Дата кодирования : UTC 2020-03-12 02:03:43
Программа кодирования : mkvmerge v8.2.0 ('World of Adventure') 64bit
Библиотека кодирования : libebml v1.3.1 + libmatroska v1.4.2

Видео
Идентификатор : 1
Формат : AVC
Формат/Информация : Advanced Video Codec
Профиль формата : High@L4.1
Настройки формата : CABAC / 9 Ref Frames
Параметр CABAC формата : Да
Параметр RefFrames формата : 9 кадров
Идентификатор кодека : V_MPEG4/ISO/AVC
Продолжительность : 1 ч. 43 м.
Битрейт : 7193 Кбит/сек
Ширина : 1280 пикселей
Высота : 690 пикселей
Соотношение сторон : 1,85:1
Режим частоты кадров : Постоянный
Частота кадров : 23,976 (24000/1001) кадра/сек
Цветовое пространство : YUV
Субдискретизация насыщенности : 4:2:0
Битовая глубина : 8 бит
Тип развёртки : Прогрессивная
Бит/(Пиксели*Кадры) : 0.340
Размер потока : 5,22 Гбайт (84%)
Библиотека кодирования : x264 core 159 r2991 1771b55
Настройки программы : cabac=1 / ref=9 / deblock=1:-2:-2 / analyse=0x3:0x113 / me=umh / subme=11 / psy=1 / psy_rd=1.00:0.15 / mixed_ref=1 / me_range=32 / chroma_me=1 / trellis=2 / 8x8dct=1 / cqm=0 / deadzone=21,11 / fast_pskip=0 / chroma_qp_offset=-3 / threads=6 / lookahead_threads=1 / sliced_threads=0 / nr=0 / decimate=1 / interlaced=0 / bluray_compat=0 / constrained_intra=0 / bframes=8 / b_pyramid=2 / b_adapt=2 / b_bias=0 / direct=1 / weightb=1 / open_gop=0 / weightp=2 / keyint=230 / keyint_min=23 / scenecut=40 / intra_refresh=0 / rc_lookahead=40 / rc=crf / mbtree=1 / crf=20.0 / qcomp=0.60 / qpmin=0 / qpmax=69 / qpstep=4 / vbv_maxrate=50000 / vbv_bufsize=62500 / crf_max=0.0 / nal_hrd=none / filler=0 / ip_ratio=1.40 / aq=1:1.00
Язык : English
Default : Да
Forced : Нет

Аудио #1
Идентификатор : 2
Формат : AC-3
Формат/Информация : Audio Coding 3
Коммерческое название : Dolby Digital
Идентификатор кодека : A_AC3
Продолжительность : 1 ч. 43 м.
Вид битрейта : Постоянный
Битрейт : 192 Кбит/сек
Каналы : 2 канала
ChannelLayout : L R
Частота : 48,0 КГц
Частота кадров : 31,250 кадров/сек (1536 SPF)
Метод сжатия : С потерями
Размер потока : 143 Мбайт (2%)
Заголовок : DUB Мосфильм
Язык : Russian
ServiceKind/String : Complete Main
Default : Да
Forced : Нет

Аудио #2
Идентификатор : 3
Формат : AC-3
Формат/Информация : Audio Coding 3
Коммерческое название : Dolby Digital
Идентификатор кодека : A_AC3
Продолжительность : 1 ч. 43 м.
Вид битрейта : Постоянный
Битрейт : 192 Кбит/сек
Каналы : 2 канала
ChannelLayout : L R
Частота : 48,0 КГц
Частота кадров : 31,250 кадров/сек (1536 SPF)
Метод сжатия : С потерями
Размер потока : 142 Мбайт (2%)
Заголовок : MVO DVD Classic
Язык : Russian
ServiceKind/String : Complete Main
Default : Нет
Forced : Нет

Аудио #3
Идентификатор : 4
Формат : AC-3
Формат/Информация : Audio Coding 3
Коммерческое название : Dolby Digital
Идентификатор кодека : A_AC3
Продолжительность : 1 ч. 43 м.
Вид битрейта : Постоянный
Битрейт : 192 Кбит/сек
Каналы : 2 канала
ChannelLayout : L R
Частота : 48,0 КГц
Частота кадров : 31,250 кадров/сек (1536 SPF)
Метод сжатия : С потерями
Размер потока : 143 Мбайт (2%)
Заголовок : MVO DVD Магия
Язык : Russian
ServiceKind/String : Complete Main
Default : Нет
Forced : Нет

Аудио #4
Идентификатор : 5
Формат : AC-3
Формат/Информация : Audio Coding 3
Коммерческое название : Dolby Digital
Идентификатор кодека : A_AC3
Продолжительность : 1 ч. 43 м.
Вид битрейта : Постоянный
Битрейт : 192 Кбит/сек
Каналы : 2 канала
ChannelLayout : L R
Частота : 48,0 КГц
Частота кадров : 31,250 кадров/сек (1536 SPF)
Метод сжатия : С потерями
Размер потока : 143 Мбайт (2%)
Заголовок : MVO Film Prestige
Язык : Russian
ServiceKind/String : Complete Main
Default : Нет
Forced : Нет

Аудио #5
Идентификатор : 6
Формат : AC-3
Формат/Информация : Audio Coding 3
Коммерческое название : Dolby Digital
Идентификатор кодека : A_AC3
Продолжительность : 1 ч. 43 м.
Вид битрейта : Постоянный
Битрейт : 192 Кбит/сек
Каналы : 2 канала
ChannelLayout : L R
Частота : 48,0 КГц
Частота кадров : 31,250 кадров/сек (1536 SPF)
Метод сжатия : С потерями
Размер потока : 143 Мбайт (2%)
Заголовок : DVO HTB+
Язык : Russian
ServiceKind/String : Complete Main
Default : Нет
Forced : Нет

Аудио #6
Идентификатор : 7
Формат : AC-3
Формат/Информация : Audio Coding 3
Коммерческое название : Dolby Digital
Идентификатор кодека : A_AC3
Продолжительность : 1 ч. 43 м.
Вид битрейта : Постоянный
Битрейт : 192 Кбит/сек
Каналы : 2 канала
ChannelLayout : L R
Частота : 48,0 КГц
Частота кадров : 31,250 кадров/сек (1536 SPF)
Метод сжатия : С потерями
Размер потока : 143 Мбайт (2%)
Заголовок : Андрей Гаврилов
Язык : Russian
ServiceKind/String : Complete Main
Default : Нет
Forced : Нет

Аудио #7
Идентификатор : 8
Формат : AC-3
Формат/Информация : Audio Coding 3
Коммерческое название : Dolby Digital
Идентификатор кодека : A_AC3
Продолжительность : 1 ч. 43 м.
Вид битрейта : Постоянный
Битрейт : 192 Кбит/сек
Каналы : 2 канала
ChannelLayout : L R
Частота : 48,0 КГц
Частота кадров : 31,250 кадров/сек (1536 SPF)
Метод сжатия : С потерями
Размер потока : 143 Мбайт (2%)
Заголовок : original
Язык : English
ServiceKind/String : Complete Main
Default : Нет
Forced : Нет

Текст #1
Идентификатор : 9
Формат : UTF-8
Идентификатор кодека : S_TEXT/UTF8
Идентификатор кодека/Информация : UTF-8 Plain Text
Продолжительность : 1 ч. 43 м.
Битрейт : 142 бит/сек
ElementCount : 1922
Размер потока : 108 Кбайт (0%)
Заголовок : русские
Язык : Russian
Default : Нет
Forced : Нет

Текст #2
Идентификатор : 10
Формат : UTF-8
Идентификатор кодека : S_TEXT/UTF8
Идентификатор кодека/Информация : UTF-8 Plain Text
Продолжительность : 1 ч. 43 м.
Битрейт : 94 бит/сек
ElementCount : 2030
Размер потока : 71,7 Кбайт (0%)
Заголовок : английские
Язык : English
Default : Нет
Forced : Нет

Меню #1
00:00:00.000 : :Глава 01
00:04:17.507 : :Глава 02
00:12:13.149 : :Глава 03
00:20:58.799 : :Глава 04
00:31:43.484 : :Глава 05
00:44:21.200 : :Глава 06
01:03:25.384 : :Глава 07
01:14:05.023 : :Глава 08
01:29:52.136 : :Глава 09
01:42:27.975 : :Глава 10

Меню #2
00:00:00.000 : en:00:00:00.000
00:04:17.507 : en:00:04:17.507
00:12:13.149 : en:00:12:13.149
00:20:58.799 : en:00:20:58.799
00:31:43.485 : en:00:31:43.485
00:44:21.200 : en:00:44:21.200
01:03:25.385 : en:01:03:25.385
01:14:05.024 : en:01:14:05.024
01:29:52.137 : en:01:29:52.137
01:42:27.975 : en:01:42:27.975
piratbit.pw



Скачать Цветок кактуса через торрент https://d.radikal.ru/d38/2003/b3/ee1a0cc545cd.jpg Скачать фильм Цветок кактуса через торрент бесплантно в хорошем качестве О фильме: Джулиан Уинстон, смешной холостяк и бабник, под влиянием жизненных обстоятельств попадает в различные комические ситуации. ... 5 10 1
Info! Золотая раздача, скачанное не засчитывается.
Торрент: Зарегистрирован [2020-03-12 05:16] · скачан: 0 раз
Статус: √ проверено
Размер: 6.19 GB
Как cкачать? Как скачать Цветок кактуса через торрент | qTorrent

% Раздел Тема Автор DL S | L
Классика зарубежного кино [ 13.46 GB ] Цветок кактуса / Cactus Flower [1969 BDRip 1080p by msltel] DUB 3 x MVO DVO AVO msltel Скачать
1 | 0
Классика зарубежного кино [ 3.62 GB ] Цветок кактуса / Cactus Flower [1969 BDRip-AVC by msltel] DUB 3 x MVO DVO AVO msltel Скачать
1 | 0


Последний раз редактировалось: msltel (2020-03-12 06:01), всего редактировалось 1 раз

28-11-2019 20:33  

Отключить всю рекламу на сайте

12-03-2020 06:05 Цветок кактуса Скачать торрент  

piratbit.pw



    Дорогой пользователь! Огромная просьба, поблагодарите релизера, оцените раздачу и оставьте свои комментарий, если Вы скачали Цветок кактуса через торрент бесплатно! Внесите свою лепту в развитие PiratBit!
    Комментировать посты могут только пользователи прошедшие не сложную регистрацию
    Показать сообщения:    

    Цветок кактуса через торрент
    Скачать бесплатно Цветок кактуса
    Цветок кактуса скачать торрент
    Цветок кактуса смотреть онлайн
    Cкачать фильм Цветок кактуса бесплатно
    Цветок кактуса скачать торрент в хорошем качестве
    Цветок кактуса смотреть онлайн бесплатно в хорошем качестве


    Вы не можете начинать темы
    Вы не можете отвечать на сообщения
    Вы не можете редактировать свои сообщения
    Вы не можете удалять свои сообщения
    Вы не можете голосовать в опросах
    Вы не можете прикреплять файлы к сообщениям
    Вы можете скачивать файлы