Ссылка на приватное зеркало нашего сайта всего за 1$. Внимание количество ограничено!!!

2 сезон

iTunes

1 сезон

1

iTunes

iTunes

iTunes

1 сезон

RePack

30

ИГРА 18+

pack

ВАЖНО

!!Акция!!

Alien_RageХит недели

RePack

MK11
pack

Забери бонус

RePack

jed

!!Акция!!

Alien_Rage

RePack

fifa19

RePack

Assassins Creed: Odyssey

RePack

NEED FOR SPEED™ PAYBACK

4 сезон

9 сезон

Бесстыжие 9 сезон

Все сериалы

все сериалы на PB.wtf

RePack

FAR CRY 5
  

Бронко Билли / Bronco Billy (Клинт Иствуд) [1980, боевик, драма, мелодрама, комедия, приключения, вестерн, BDRip 720p by msltel] MVO, DVO piratbit.pw

Бронко Билли через торрент piratbit.pw

Размер: 5.47 GB | Добавлен: 7 мес. назад | Торрент скачан:2 раза
Скачать  

09-03-2020 05:37 Бронко Билли Скачать торрент  

Название: Бронко Билли
Оригинальное название: Bronco Billy
Год выпуска: 1980
Страна: США
Жанр: боевик, драма, мелодрама, комедия, приключения, вестерн
Продолжительность: 01:56:23
Перевод: профессиональный многоголосый, профессиональный двухголосый
Режиссер: Клинт Иствуд
В ролях: Клинт Иствуд, Сондра Лок, Джеффри Льюис, Скэтмэн Крозерс, Билл МакКинни, Сэм Боттомс, Дэн Вадис, Сьерра Пешёр, Уолтер Барнс, Вудроу Парфри, Беверли МакКинси, Даг МакГрат, Хэнк Уорден, Уильям Принц, Чак Хикс, Роберт Ф. Хой, Ллойд Нельсон, Джордж Оррисон, Майкл Рейнболд, Тесса Ричард, Элисон Иствуд, Кайл Иствуд, Мерл Хаггард, Джордж Уэндт, Пэм Аббас, Эди Бёрд, Джон Уэсли Эллиотт мл., Джеффресон Джуэлл, Даунин Ли, Дон Маммерт

О фильме: Бронко Билли меткий стрелок и ловкий наездник, владелец собственного циркового шоу в стиле «Дикий Запад». Жизнь обходится с героем неласково: ковбой еле сводит концы с концами. Но вот он встречает наследницу огромного состояния, оставшуюся, по воле случая, без денег, вещей и документов. Несмотря на то, что эта девушка не умеет стрелять с завязанными глазами и лихо ездить верхом, ей удаётся изящно заарканить сердце Бронко Билли...



Качество: BDRip 720p
Формат: MKV
Видео: MPEG-4 AVC, 6155 Kбит/с, 1280x690, 23.976 Кадр/c
Аудио 1: русский, AC3, 192 kbps, 2 ch, 48 kHz [закадровый многоголосый, ВГТРК]
Аудио 2: русский, AC3, 192 kbps, 2 ch, 48 kHz [закадровый двухголосый]
Аудио 3: английский, AC3, 192 kbps, 2 ch, 48 kHz [оригинал]
Субтитры 1: английские
Субтитры 2: немецкие
Главы/чаптеры
Общее
Уникальный идентификатор : 239309793900766953503812588821728132113 (0xB40963CA512736FABE93289BA8AAFC11)
Полное имя : D:\Video\Бронко Билли.1980.BDRip 720p by msltel.mkv
Формат : Matroska
Версия формата : Version 4
Размер файла : 5,47 Гбайт
Продолжительность : 1 ч. 56 м.
Общий поток : 6733 Кбит/сек
Название фильма : Rip by msltel
Дата кодирования : UTC 2020-03-08 14:12:08
Программа кодирования : mkvmerge v8.2.0 ('World of Adventure') 64bit
Библиотека кодирования : libebml v1.3.1 + libmatroska v1.4.2

Видео
Идентификатор : 1
Формат : AVC
Формат/Информация : Advanced Video Codec
Профиль формата : High@L4.1
Настройки формата : CABAC / 9 Ref Frames
Параметр CABAC формата : Да
Параметр RefFrames формата : 9 кадров
Идентификатор кодека : V_MPEG4/ISO/AVC
Продолжительность : 1 ч. 56 м.
Битрейт : 6155 Кбит/сек
Ширина : 1280 пикселей
Высота : 690 пикселей
Соотношение сторон : 1,85:1
Режим частоты кадров : Постоянный
Частота кадров : 23,976 (24000/1001) кадра/сек
Цветовое пространство : YUV
Субдискретизация насыщенности : 4:2:0
Битовая глубина : 8 бит
Тип развёртки : Прогрессивная
Бит/(Пиксели*Кадры) : 0.291
Размер потока : 5,00 Гбайт (91%)
Библиотека кодирования : x264 core 157 r2969 d4099dd
Настройки программы : cabac=1 / ref=9 / deblock=1:-2:-2 / analyse=0x3:0x113 / me=umh / subme=11 / psy=1 / psy_rd=1.00:0.15 / mixed_ref=1 / me_range=32 / chroma_me=1 / trellis=2 / 8x8dct=1 / cqm=0 / deadzone=21,11 / fast_pskip=0 / chroma_qp_offset=-3 / threads=6 / lookahead_threads=1 / sliced_threads=0 / nr=0 / decimate=1 / interlaced=0 / bluray_compat=0 / constrained_intra=0 / bframes=6 / b_pyramid=2 / b_adapt=2 / b_bias=0 / direct=1 / weightb=1 / open_gop=0 / weightp=2 / keyint=230 / keyint_min=23 / scenecut=40 / intra_refresh=0 / rc_lookahead=40 / rc=crf / mbtree=1 / crf=18.5 / qcomp=0.60 / qpmin=0 / qpmax=69 / qpstep=4 / vbv_maxrate=50000 / vbv_bufsize=62500 / crf_max=0.0 / nal_hrd=none / filler=0 / ip_ratio=1.40 / aq=1:1.00
Язык : English
Default : Да
Forced : Нет

Аудио #1
Идентификатор : 2
Формат : AC-3
Формат/Информация : Audio Coding 3
Коммерческое название : Dolby Digital
Идентификатор кодека : A_AC3
Продолжительность : 1 ч. 56 м.
Вид битрейта : Постоянный
Битрейт : 192 Кбит/сек
Каналы : 2 канала
ChannelLayout : L R
Частота : 48,0 КГц
Частота кадров : 31,250 кадров/сек (1536 SPF)
Метод сжатия : С потерями
Размер потока : 160 Мбайт (3%)
Заголовок : MVO ВГТРК
Язык : Russian
ServiceKind/String : Complete Main
Default : Да
Forced : Нет

Аудио #2
Идентификатор : 3
Формат : AC-3
Формат/Информация : Audio Coding 3
Коммерческое название : Dolby Digital
Идентификатор кодека : A_AC3
Продолжительность : 1 ч. 56 м.
Вид битрейта : Постоянный
Битрейт : 192 Кбит/сек
Каналы : 2 канала
ChannelLayout : L R
Частота : 48,0 КГц
Частота кадров : 31,250 кадров/сек (1536 SPF)
Метод сжатия : С потерями
Размер потока : 160 Мбайт (3%)
Заголовок : DVO
Язык : Russian
ServiceKind/String : Complete Main
Default : Нет
Forced : Нет

Аудио #3
Идентификатор : 4
Формат : AC-3
Формат/Информация : Audio Coding 3
Коммерческое название : Dolby Digital
Идентификатор кодека : A_AC3
Продолжительность : 1 ч. 56 м.
Вид битрейта : Постоянный
Битрейт : 192 Кбит/сек
Каналы : 2 канала
ChannelLayout : L R
Частота : 48,0 КГц
Частота кадров : 31,250 кадров/сек (1536 SPF)
Метод сжатия : С потерями
Размер потока : 160 Мбайт (3%)
Заголовок : original
Язык : English
ServiceKind/String : Complete Main
Default : Нет
Forced : Нет

Текст #1
Идентификатор : 5
Формат : UTF-8
Идентификатор кодека : S_TEXT/UTF8
Идентификатор кодека/Информация : UTF-8 Plain Text
Продолжительность : 1 ч. 55 м.
Битрейт : 62 бит/сек
ElementCount : 1828
Размер потока : 52,7 Кбайт (0%)
Заголовок : английские
Язык : English
Default : Нет
Forced : Нет

Текст #2
Идентификатор : 6
Формат : UTF-8
Идентификатор кодека : S_TEXT/UTF8
Идентификатор кодека/Информация : UTF-8 Plain Text
Продолжительность : 1 ч. 50 м.
Битрейт : 58 бит/сек
ElementCount : 1313
Размер потока : 47,3 Кбайт (0%)
Заголовок : немецкие
Язык : German
Default : Нет
Forced : Нет

Меню
00:00:00.000 : en:Chapter 01
00:02:55.592 : en:Chapter 02
00:10:29.337 : en:Chapter 03
00:14:45.551 : en:Chapter 04
00:18:18.722 : en:Chapter 05
00:21:21.780 : en:Chapter 06
00:23:59.563 : en:Chapter 07
00:26:32.299 : en:Chapter 08
00:30:42.048 : en:Chapter 09
00:32:56.683 : en:Chapter 10
00:35:26.332 : en:Chapter 11
00:38:50.453 : en:Chapter 12
00:41:54.470 : en:Chapter 13
00:44:33.712 : en:Chapter 14
00:49:15.202 : en:Chapter 15
00:51:36.843 : en:Chapter 16
00:55:48.178 : en:Chapter 17
00:59:16.386 : en:Chapter 18
01:01:58.423 : en:Chapter 19
01:04:58.269 : en:Chapter 20
01:08:10.878 : en:Chapter 21
01:12:54.995 : en:Chapter 22
01:18:58.525 : en:Chapter 23
01:21:32.846 : en:Chapter 24
01:26:34.814 : en:Chapter 25
01:30:13.491 : en:Chapter 26
01:33:37.236 : en:Chapter 27
01:37:06.487 : en:Chapter 28
01:41:30.501 : en:Chapter 29
01:45:29.614 : en:Chapter 30
01:48:18.783 : en:Chapter 31
01:53:14.996 : en:Chapter 32
piratbit.pw



Скачать Бронко Билли через торрент https://b.radikal.ru/b34/2003/27/f264d5d26a55.jpg Скачать фильм Бронко Билли через торрент бесплантно в хорошем качестве О фильме: Бронко Билли меткий стрелок и ловкий наездник, владелец собственного циркового шоу в стиле «Дикий Запад». Жизнь обходится с ... 5 10 1
Info! Золотая раздача, скачанное не засчитывается.
Торрент: Зарегистрирован [2020-03-09 05:37] · скачан: 2 раз
Статус: √ проверено
Размер: 5.47 GB
Как cкачать? Как скачать Бронко Билли через торрент | qTorrent

% Раздел Тема Автор DL S | L
Классика зарубежного кино [ 14.57 GB ] Бронко Билли / Bronco Billy [1980 BDRip 1080p by msltel] MVO DVO msltel Скачать
1 | 0
Классика зарубежного кино [ 2.89 GB ] Бронко Билли / Bronco Billy [1980 BDRip-AVC by msltel] MVO DVO msltel Скачать
1 | 0

28-11-2019 20:33  

Отключить всю рекламу на сайте

    Дорогой пользователь! Огромная просьба, поблагодарите релизера, оцените раздачу и оставьте свои комментарий, если Вы скачали Бронко Билли через торрент бесплатно! Внесите свою лепту в развитие PiratBit!
    Комментировать посты могут только пользователи прошедшие не сложную регистрацию
    Показать сообщения:    

    Бронко Билли через торрент
    Скачать бесплатно Бронко Билли
    Бронко Билли скачать торрент
    Бронко Билли смотреть онлайн
    Cкачать фильм Бронко Билли бесплатно
    Бронко Билли скачать торрент в хорошем качестве
    Бронко Билли смотреть онлайн бесплатно в хорошем качестве


    Вы не можете начинать темы
    Вы не можете отвечать на сообщения
    Вы не можете редактировать свои сообщения
    Вы не можете удалять свои сообщения
    Вы не можете голосовать в опросах
    Вы не можете прикреплять файлы к сообщениям
    Вы можете скачивать файлы