1 сезон

1 сезон

iTunes

1

КиноПоиск HD

Кинопоиск HD

iTunes

13

1 сезон

RePack

30

Ultimate

ВАЖНО

ИГРА 18+

pack

RePack

MK11
pack

Легкие деньги

RePack

jed

RePack

fifa19

RePack

RDR2

RePack

NEED FOR SPEED™ PAYBACK

4 сезон

9 сезон

Бесстыжие 9 сезон

Все сериалы

все сериалы на PB.wtf

RePack

FAR CRY 5
  
Magnet ссылка

Отражающая кожа / The Reflecting Skin (Филип Ридли) [1990, драма, триллер, BDRip 720p by msltel] 3 x AVO piratbit.pw

Отражающая кожа через торрент piratbit.pw

Размер: 4.68 GB | Добавлен: 1 год 1 мес. назад | Торрент скачан:5 раз
Скачать  

06-03-2020 06:09 Отражающая кожа Скачать торрент  

Название: Отражающая кожа
Оригинальное название: The Reflecting Skin
Год выпуска: 1990
Страна: Великобритания, Канада
Жанр: драма, триллер
Продолжительность: 01:35:53
Перевод: авторский
Режиссер: Филип Ридли
В ролях: Вигго Мортенсен, Линдси Дункан, Джереми Купер, Шила Мур, Дункан Фрайзер, Дэвид Лонгуорт, Роберт Кунс, Дэвид Блум, Ивэн Холл, Коди Лукас Уилби, Шерри Бие, Джейсон Вульф, Дин Хэсс, Гай Буллер, Джейсон Браунлоу, Джефф Уолкер, Джойс Роббинс, Жаклин Роббинс, Сандра Редмонд, Уолт Хили

О фильме: В основе сюжета история взросления мальчика, живущего в 1950-х годах в сельской глубинке штата Айдахо. В фильм вплетены элементы гротеска, вампиризма, сексуального насилия над детьми и религиозного фанатизма, которые показаны через ощущения и фантазии впечатлительного подростка и его друзей. Фильм создает мрачное настроение. Действие за пределами дома в основном происходит вокруг разрушенных ферм и в кукурузных полях Айдахо. Идиллический солнечный свет в кадре контрастирует с тёмными тайнами и упадничеством героев. Рассказ ведётся в объективном, несколько абсурдистском стиле... (Википедия)



Качество: BDRip 720p
Формат: MKV
Видео: MPEG-4 AVC, 6221 Кбит/с, 1280x692, 23.976 Кадр/с
Аудио 1: русский, AC3, 192 kbps, 2 ch, 48 kHz [авторский, Антон Алексеев]
Аудио 2: русский, AC3, 192 kbps, 2 ch, 48 kHz [авторский, Андрей Гаврилов]
Аудио 3: русский, AC3, 192 kbps, 2 ch, 48 kHz [авторский, Юрий Сербин]
Аудио 4: английский, AC3, 192 kbps, 2 ch, 48 kHz [оригинал]
Субтитры 1: русские
Субтитры 2: английские
Главы/чаптеры
Общее
Уникальный идентификатор : 225069174957487545590796049512079012108 (0xA952BF11824B1ABDA3316ED1112FB10C)
Полное имя : D:\Video\Отражающая кожа.1990.BDRip 720p by msltel.mkv
Формат : Matroska
Версия формата : Version 4
Размер файла : 4,68 Гбайт
Продолжительность : 1 ч. 35 м.
Общий поток : 6992 Кбит/сек
Название фильма : Rip by msltel
Дата кодирования : UTC 2020-03-06 02:40:04
Программа кодирования : mkvmerge v8.2.0 ('World of Adventure') 64bit
Библиотека кодирования : libebml v1.3.1 + libmatroska v1.4.2

Видео
Идентификатор : 1
Формат : AVC
Формат/Информация : Advanced Video Codec
Профиль формата : High@L4.1
Настройки формата : CABAC / 9 Ref Frames
Параметр CABAC формата : Да
Параметр RefFrames формата : 9 кадров
Идентификатор кодека : V_MPEG4/ISO/AVC
Продолжительность : 1 ч. 35 м.
Битрейт : 6221 Кбит/сек
Ширина : 1280 пикселей
Высота : 692 пикселя
Соотношение сторон : 1,85:1
Режим частоты кадров : Постоянный
Частота кадров : 23,976 (24000/1001) кадра/сек
Цветовое пространство : YUV
Субдискретизация насыщенности : 4:2:0
Битовая глубина : 8 бит
Тип развёртки : Прогрессивная
Бит/(Пиксели*Кадры) : 0.293
Размер потока : 4,17 Гбайт (89%)
Библиотека кодирования : x264 core 157 r2969 d4099dd
Настройки программы : cabac=1 / ref=9 / deblock=1:-2:-2 / analyse=0x3:0x113 / me=umh / subme=11 / psy=1 / psy_rd=1.00:0.15 / mixed_ref=1 / me_range=32 / chroma_me=1 / trellis=2 / 8x8dct=1 / cqm=0 / deadzone=21,11 / fast_pskip=0 / chroma_qp_offset=-3 / threads=6 / lookahead_threads=1 / sliced_threads=0 / nr=0 / decimate=1 / interlaced=0 / bluray_compat=0 / constrained_intra=0 / bframes=7 / b_pyramid=2 / b_adapt=2 / b_bias=0 / direct=1 / weightb=1 / open_gop=0 / weightp=2 / keyint=230 / keyint_min=23 / scenecut=40 / intra_refresh=0 / rc_lookahead=40 / rc=crf / mbtree=1 / crf=17.4 / qcomp=0.60 / qpmin=0 / qpmax=69 / qpstep=4 / vbv_maxrate=50000 / vbv_bufsize=62500 / crf_max=0.0 / nal_hrd=none / filler=0 / ip_ratio=1.40 / aq=1:1.00
Язык : English
Default : Да
Forced : Нет

Аудио #1
Идентификатор : 2
Формат : AC-3
Формат/Информация : Audio Coding 3
Коммерческое название : Dolby Digital
Идентификатор кодека : A_AC3
Продолжительность : 1 ч. 35 м.
Вид битрейта : Постоянный
Битрейт : 192 Кбит/сек
Каналы : 2 канала
ChannelLayout : L R
Частота : 48,0 КГц
Частота кадров : 31,250 кадров/сек (1536 SPF)
Метод сжатия : С потерями
Размер потока : 132 Мбайт (3%)
Заголовок : Антон Алексеев
Язык : Russian
ServiceKind/String : Complete Main
Default : Да
Forced : Нет

Аудио #2
Идентификатор : 3
Формат : AC-3
Формат/Информация : Audio Coding 3
Коммерческое название : Dolby Digital
Идентификатор кодека : A_AC3
Продолжительность : 1 ч. 35 м.
Вид битрейта : Постоянный
Битрейт : 192 Кбит/сек
Каналы : 2 канала
ChannelLayout : L R
Частота : 48,0 КГц
Частота кадров : 31,250 кадров/сек (1536 SPF)
Метод сжатия : С потерями
Размер потока : 132 Мбайт (3%)
Заголовок : Андрей Гаврилов
Язык : Russian
ServiceKind/String : Complete Main
Default : Нет
Forced : Нет

Аудио #3
Идентификатор : 4
Формат : AC-3
Формат/Информация : Audio Coding 3
Коммерческое название : Dolby Digital
Идентификатор кодека : A_AC3
Продолжительность : 1 ч. 35 м.
Вид битрейта : Постоянный
Битрейт : 192 Кбит/сек
Каналы : 2 канала
ChannelLayout : L R
Частота : 48,0 КГц
Частота кадров : 31,250 кадров/сек (1536 SPF)
Метод сжатия : С потерями
Размер потока : 132 Мбайт (3%)
Заголовок : Юрий Сербин
Язык : Russian
ServiceKind/String : Complete Main
Default : Нет
Forced : Нет

Аудио #4
Идентификатор : 5
Формат : AC-3
Формат/Информация : Audio Coding 3
Коммерческое название : Dolby Digital
Идентификатор кодека : A_AC3
Продолжительность : 1 ч. 35 м.
Вид битрейта : Постоянный
Битрейт : 192 Кбит/сек
Каналы : 2 канала
ChannelLayout : L R
Частота : 48,0 КГц
Частота кадров : 31,250 кадров/сек (1536 SPF)
Метод сжатия : С потерями
Размер потока : 132 Мбайт (3%)
Заголовок : original
Язык : English
ServiceKind/String : Complete Main
Default : Нет
Forced : Нет

Текст #1
Идентификатор : 6
Формат : UTF-8
Идентификатор кодека : S_TEXT/UTF8
Идентификатор кодека/Информация : UTF-8 Plain Text
Продолжительность : 1 ч. 29 м.
Битрейт : 52 бит/сек
ElementCount : 776
Размер потока : 34,3 Кбайт (0%)
Заголовок : русские
Язык : Russian
Default : Нет
Forced : Нет

Текст #2
Идентификатор : 7
Формат : UTF-8
Идентификатор кодека : S_TEXT/UTF8
Идентификатор кодека/Информация : UTF-8 Plain Text
Продолжительность : 1 ч. 29 м.
Битрейт : 35 бит/сек
ElementCount : 784
Размер потока : 22,9 Кбайт (0%)
Заголовок : английские
Язык : English
Default : Нет
Forced : Нет

Меню
00:00:00.000 : en:Opening Credits
00:02:04.708 : en:Exploding Frog
00:05:56.314 : en:Gasolene & Grease
00:09:40.455 : en:Son of a Scarecrow
00:14:10.224 : en:Dreams and Decay
00:22:52.204 : en:Water
00:27:11.338 : en:The Vampire's House
00:32:50.135 : en:From Kissing to Killing
00:37:59.986 : en:Doverage
00:41:12.887 : en:Cameron
00:45:50.039 : en:A New Kind of Animal
00:54:15.878 : en:An Angel Thrown to Earth
00:58:05.148 : en:Photograph Puzzle
01:02:37.337 : en:Bombs
01:08:09.210 : en:Killer Cadillac
01:11:58.981 : en:Harpoon Blood
01:18:22.323 : en:Sin! Sin! Sin!
01:24:44.037 : en:A Beautiful Day
01:29:34.244 : en:Sunset Screaming
01:33:55.171 : en:End Credits
piratbit.pw



Скачать Отражающая кожа через торрент https://d.radikal.ru/d04/2003/47/d8b189ba36e0.jpg Скачать фильм Отражающая кожа через торрент бесплантно в хорошем качестве О фильме: В основе сюжета история взросления мальчика, живущего в 1950-х годах в сельской глубинке штата Айдахо. В фильм вплетены элементы ... 5 10 1
Info! Золотая раздача, скачанное не засчитывается.
Торрент: Зарегистрирован [2020-03-06 06:09] · скачан: 5 раз
Статус: √ проверено
Размер: 4.68 GB
Как cкачать? Как скачать Отражающая кожа через торрент | UTorrent

% Раздел Тема Автор DL S | L
Фильмы с авторской озвучкой [ 11.59 GB ] Отражающая кожа / The Reflecting Skin [1990 BDRip 1080p by msltel] 3 x AVO msltel Скачать
1 | 0
Фильмы с авторской озвучкой [ 2.55 GB ] Отражающая кожа / The Reflecting Skin [1990 BDRip-AVC by msltel] 3 x AVO msltel Скачать
1 | 0

28-11-2019 20:33  

Отключить всю рекламу на сайте

    Дорогой пользователь! Огромная просьба, поблагодарите релизера, оцените раздачу и оставьте свои комментарий, если Вы скачали Отражающая кожа через торрент бесплатно! Внесите свою лепту в развитие PiratBit!
    Комментировать посты могут только пользователи прошедшие не сложную регистрацию
    Показать сообщения:    

    Отражающая кожа через торрент
    Скачать бесплатно Отражающая кожа
    Отражающая кожа скачать торрент
    Отражающая кожа смотреть онлайн
    Cкачать фильм Отражающая кожа бесплатно
    Отражающая кожа скачать торрент в хорошем качестве
    Отражающая кожа смотреть онлайн бесплатно в хорошем качестве


    Вы не можете начинать темы
    Вы не можете отвечать на сообщения
    Вы не можете редактировать свои сообщения
    Вы не можете удалять свои сообщения
    Вы не можете голосовать в опросах
    Вы не можете прикреплять файлы к сообщениям
    Вы можете скачивать файлы