Marvel's Avengers Deluxe Edition (супер цена) 159р. Внимание количество ограничено!!!

2 сезон

iTunes

iTunes

1

iTunes

iTunes

iTunes

WEBRip

iTunes

30
pack

Новость дня

ВАЖНО

!!Акция!!

Alien_RageХит недели

RePack

Horizon Zero Dawn

ИГРА 18+

pack

RePack

jed

!!Акция!!

Alien_Rage

RePack

fifa19

RePack

Assassins Creed: Odyssey

RePack

NEED FOR SPEED™ PAYBACK

4 сезон

9 сезон

Бесстыжие 9 сезон

Все сериалы

все сериалы на PB.wtf

RePack

FAR CRY 5
  

Приключения Флика / Жизнь жуков / A Bug's Life (Джон Лассетер, Эндрю Стэнтон) [1998, Мультфильм, комедия, приключения, семейный, UHD BDRemux 2160p] piratbit.pw

Приключения Флика через торрент piratbit.pw

Размер: 47.62 GB | Добавлен: 6 мес. назад | Торрент скачан:3 раза
Скачать  

06-03-2020 01:01 Приключения Флика Скачать торрент  

Приключения Флика | Жизнь жуков | A Bug's Life
Год выпуска: 1998
Страна: США
Студия: Pixar Animation Studios, Walt Disney Pictures
Жанр: Мультфильм, комедия, приключения, семейный, полнометражный
Продолжительность: 01:34:54
Перевод(ы):
#1: Дублированный
#2: Профессиональный многоголосый
#3: Профессиональный многоголосый | Киномания
#4: Профессиональный двухголосый | П.Гланц и Т.Казакова
#5: Авторский | Юрий Живов
Субтитры: Русские (Full, SDH), английские

Режиссер: Джон Лассетер, Эндрю Стэнтон

rating

В ролях: Дэйв Фоли, Кевин Спейси, Джулия Луис-Дрейфус, Хейден Панеттьери, Филлис Диллер, Ричард Кайнд, Дэвид Хайд Пирс, Джо Рэнфт, Дэнис Лири, Джонатан Харрис, Мэдлин Кан, Бонни Хант, Майкл МакШейн, Джон Ратценбергер, Брэд Гэррет, Родди МакДауэлл, Эди МакКлёрг, Алекс Рокко, Дэвид Оссман, Карлос Алазраки, Дэвид Л. Лэндер, Джек Эйнджел, Боб Берген, Кимберли Дж. Браун, Роджер Бампасс, Энтони Берч, Дженнифер Дарлинг, Рэйчел Дэвей, Деби Дерриберри, Пол Айдинг, Джесика Эванс, Билл Фармер, Сэм Гифальди, Брэд Холл, Джесс Харнелл, Бренден Хикки, Кейт Ходжес, Денис Джонсон, Джон Лас

Описание: Действия картины происходят на острове, в колонии муравьев. Среди них особо выделяется изобретатель Флик. Муравьи занимались тем, что собирали дань в виде еды для кузнечиков. Однажды Флик случайно сбросил в воду всю собранную в виде дани еду. Кузнечики в результате чего увеличили дань. Флик решил противостоять этому. Так началась освободительная борьба муравьев за независимость.

Качество: UHD BDRemux 2160p
Формат: MKV

Видео: 3840x2160 at 23.976 fps, MPEG-H HEVC HDR Video, 59700 kbps avg
Аудио #01: 48 kHz, AC3, 5.1, 448 Kbps | Дублированный | RUS |
Аудио #02: 48 kHz, AC3, 5.1, 448 Kbps | Профессиональный многоголосый | RUS |
Аудио #03: 48 kHz, AC3, 5.1, 448 Kbps | Киномания | RUS |
Аудио #04: 48 kHz, DTS, 5.1, 1510 Kbps | П.Гланц и Т.Казакова | RUS |
Аудио #05: 48 kHz, AC3, 5.1, 384 Kbps | Юрий Живов | RUS |
Аудио #06: 48 kHz, TrueHD, 7.1, 8187 Kbps | Оригинал | ENG |
Аудио #07: 48 kHz, AC3, 5.1, 640 Kbps | Оригинал | ENG |
скриншот  скриншот  скриншот  скриншот  скриншот  

General
Unique ID : 259208280274002796742574303814232562501 (0xC301B2E9E23A837E57A92ECFAFD3DB45)
Complete name : E:Video111A.Bug.s.Life.1998.BDREMUX.2160p.HDR.seleZen.mkv
Format : Matroska
Format version : Version 4
File size : 47.6 GiB
Duration : 1 h 34 min
Overall bit rate mode : Variable
Overall bit rate : 71.8 Mb/s
Movie name : A Bug's Life 1998 from селезень
Encoded date : UTC 2020-03-06 00:14:34
Writing application : mkvmerge v40.0.0 ('Old Town Road + Pony') 64-bit
Writing library : libebml v1.3.9 + libmatroska v1.5.2

Video
ID : 1
Format : HEVC
Format/Info : High Efficiency Video Coding
Format profile : Main 10@L5.1@High
HDR format : SMPTE ST 2086, HDR10 compatible
Codec ID : V_MPEGH/ISO/HEVC
Duration : 1 h 34 min
Bit rate : 59.7 Mb/s
Width : 3 840 pixels
Height : 2 160 pixels
Display aspect ratio : 16:9
Frame rate mode : Constant
Frame rate : 23.976 (24000/1001) FPS
Color space : YUV
Chroma subsampling : 4:2:0 (Type 2)
Bit depth : 10 bits
Bits/(Pixel*Frame) : 0.300
Stream size : 39.6 GiB (83%)
Writing library : ATEME Titan File 3.9.0 (4.9.0.0)
Language : English
Default : Yes
Forced : No
Color range : Limited
Color primaries : BT.2020
Transfer characteristics : PQ
Matrix coefficients : BT.2020 non-constant
Mastering display color pri : Display P3
Mastering display luminance : min: 0.0000 cd/m2, max: 1000 cd/m2

Audio #1
ID : 2
Format : AC-3
Format/Info : Audio Coding 3
Commercial name : Dolby Digital
Codec ID : A_AC3
Duration : 1 h 34 min
Bit rate mode : Constant
Bit rate : 448 kb/s
Channel(s) : 6 channels
Channel layout : L R C LFE Ls Rs
Sampling rate : 48.0 kHz
Frame rate : 31.250 FPS (1536 SPF)
Compression mode : Lossy
Stream size : 304 MiB (1%)
Title : Dub
Language : Russian
Service kind : Complete Main
Default : Yes
Forced : Yes

Audio #2
ID : 3
Format : AC-3
Format/Info : Audio Coding 3
Commercial name : Dolby Digital
Codec ID : A_AC3
Duration : 1 h 34 min
Bit rate mode : Constant
Bit rate : 448 kb/s
Channel(s) : 6 channels
Channel layout : L R C LFE Ls Rs
Sampling rate : 48.0 kHz
Frame rate : 31.250 FPS (1536 SPF)
Compression mode : Lossy
Stream size : 304 MiB (1%)
Title : MVO
Language : Russian
Service kind : Complete Main
Default : No
Forced : No

Audio #3
ID : 4
Format : AC-3
Format/Info : Audio Coding 3
Commercial name : Dolby Digital
Codec ID : A_AC3
Duration : 1 h 34 min
Bit rate mode : Constant
Bit rate : 448 kb/s
Channel(s) : 6 channels
Channel layout : L R C LFE Ls Rs
Sampling rate : 48.0 kHz
Frame rate : 31.250 FPS (1536 SPF)
Compression mode : Lossy
Stream size : 304 MiB (1%)
Title : MVO [Киномания]
Language : Russian
Service kind : Complete Main
Default : No
Forced : No

Audio #4
ID : 5
Format : DTS
Format/Info : Digital Theater Systems
Codec ID : A_DTS
Duration : 1 h 34 min
Bit rate mode : Constant
Bit rate : 1 510 kb/s
Channel(s) : 6 channels
Channel layout : C L R Ls Rs LFE
Sampling rate : 48.0 kHz
Frame rate : 93.750 FPS (512 SPF)
Bit depth : 24 bits
Compression mode : Lossy
Stream size : 1.00 GiB (2%)
Title : DVO [П.Гланц и Т.Казакова]
Language : Russian
Default : No
Forced : No

Audio #5
ID : 6
Format : AC-3
Format/Info : Audio Coding 3
Commercial name : Dolby Digital
Codec ID : A_AC3
Duration : 1 h 34 min
Bit rate mode : Constant
Bit rate : 384 kb/s
Channel(s) : 6 channels
Channel layout : L R C LFE Ls Rs
Sampling rate : 48.0 kHz
Frame rate : 31.250 FPS (1536 SPF)
Compression mode : Lossy
Stream size : 261 MiB (1%)
Title : AVO [Юрий Живов]
Language : Russian
Service kind : Complete Main
Default : No
Forced : No

Audio #6
ID : 7
Format : MLP FBA 16-ch
Format/Info : Meridian Lossless Packing FBA with 16-channel presentation
Commercial name : Dolby TrueHD with Dolby Atmos
Codec ID : A_TRUEHD
Duration : 1 h 34 min
Bit rate mode : Variable
Bit rate : 8 178 kb/s
Maximum bit rate : 8 088 kb/s
Channel(s) : 8 channels
Channel layout : L R C LFE Ls Rs Lb Rb
Sampling rate : 48.0 kHz
Frame rate : 1 200.000 FPS (40 SPF)
Compression mode : Lossless
Stream size : 5.42 GiB (11%)
Title : Original
Language : English
Default : No
Forced : No
Number of dynamic objects : 13
Bed channel count : 1 channel
Bed channel configuration : LFE

Audio #7
ID : 8
Format : AC-3
Format/Info : Audio Coding 3
Commercial name : Dolby Digital
Codec ID : A_AC3
Duration : 1 h 34 min
Bit rate mode : Constant
Bit rate : 640 kb/s
Channel(s) : 6 channels
Channel layout : L R C LFE Ls Rs
Sampling rate : 48.0 kHz
Frame rate : 31.250 FPS (1536 SPF)
Compression mode : Lossy
Stream size : 434 MiB (1%)
Language : English
Service kind : Complete Main
Default : No
Forced : No

Text #1
ID : 9
Format : UTF-8
Codec ID : S_TEXT/UTF8
Codec ID/Info : UTF-8 Plain Text
Duration : 1 h 32 min
Bit rate : 136 b/s
Count of elements : 1277
Stream size : 92.3 KiB (0%)
Title : Full
Language : Russian
Default : No
Forced : No

Text #2
ID : 10
Format : UTF-8
Codec ID : S_TEXT/UTF8
Codec ID/Info : UTF-8 Plain Text
Duration : 1 h 34 min
Bit rate : 151 b/s
Count of elements : 1441
Stream size : 105 KiB (0%)
Title : SDH
Language : Russian
Default : No
Forced : No

Text #3
ID : 11
Format : UTF-8
Codec ID : S_TEXT/UTF8
Codec ID/Info : UTF-8 Plain Text
Duration : 1 h 32 min
Bit rate : 71 b/s
Count of elements : 1255
Stream size : 48.8 KiB (0%)
Title : Full
Language : English
Default : No
Forced : No

Menu
00:00:00.000 : en:Глава 01
00:04:29.144 : en:Глава 02
00:07:52.639 : en:Глава 03
00:09:52.634 : en:Глава 04
00:15:19.293 : en:Глава 05
00:17:19.830 : en:Глава 06
00:18:56.427 : en:Глава 07
00:20:05.162 : en:Глава 08
00:26:08.609 : en:Глава 09
00:27:49.585 : en:Глава 10
00:31:29.805 : en:Глава 11
00:32:43.670 : en:Глава 12
00:35:58.031 : en:Глава 13
00:39:42.880 : en:Глава 14
00:41:27.276 : en:Глава 15
00:45:09.040 : en:Глава 16
00:45:50.289 : en:Глава 17
00:47:17.334 : en:Глава 18
00:49:13.993 : en:Глава 19
00:52:51.293 : en:Глава 20
00:56:36.643 : en:Глава 21
00:58:49.860 : en:Глава 22
01:02:24.616 : en:Глава 23
01:04:27.655 : en:Глава 24
01:05:30.844 : en:Глава 25
01:06:47.670 : en:Глава 26
01:10:02.281 : en:Глава 27
01:10:49.745 : en:Глава 28
01:15:15.928 : en:Глава 29
01:17:29.979 : en:Глава 30
01:20:00.963 : en:Глава 31
01:21:13.577 : en:Глава 32
01:23:06.106 : en:Глава 33
01:24:16.593 : en:Глава 34
01:28:31.014 : en:Глава 35
01:29:56.599 : en:Глава 36

piratbit.pw



Скачать Приключения Флика через торрент https://img10.lostpic.net/2020/03/06/1d4ed2894dd381717c6adeabed2db6ea.jpg Скачать фильм Приключения Флика через торрент бесплантно в хорошем качестве Описание: Действия картины происходят на острове, в колонии муравьев. Среди них особо выделяется изобретатель Флик. Муравьи занимались тем, ... 9.7 10 3
Торрент: Зарегистрирован [2020-03-06 01:01] · скачан: 3 раз
Статус: √ проверено
Размер: 47.62 GB
Как cкачать? Как скачать Приключения Флика через торрент | qTorrent

28-11-2019 20:33  

Отключить всю рекламу на сайте

    Дорогой пользователь! Огромная просьба, поблагодарите релизера, оцените раздачу и оставьте свои комментарий, если Вы скачали Приключения Флика через торрент бесплатно! Внесите свою лепту в развитие PiratBit!
    Комментировать посты могут только пользователи прошедшие не сложную регистрацию
    Показать сообщения:    

    Приключения Флика через торрент
    Скачать бесплатно Приключения Флика
    Приключения Флика скачать торрент
    Приключения Флика смотреть онлайн
    Cкачать фильм Приключения Флика бесплатно
    Приключения Флика скачать торрент в хорошем качестве
    Приключения Флика смотреть онлайн бесплатно в хорошем качестве


    Вы не можете начинать темы
    Вы не можете отвечать на сообщения
    Вы не можете редактировать свои сообщения
    Вы не можете удалять свои сообщения
    Вы не можете голосовать в опросах
    Вы не можете прикреплять файлы к сообщениям
    Вы можете скачивать файлы