1 сезон

1 сезон

iTunes

1

КиноПоиск HD

Кинопоиск HD

iTunes

13

1 сезон

RePack

30

Новинка

ВАЖНО

ИГРА 18+

pack

RePack

MK11
pack

Легкие деньги

RePack

jed

RePack

fifa19

RePack

RDR2

RePack

NEED FOR SPEED™ PAYBACK

4 сезон

9 сезон

Бесстыжие 9 сезон

Все сериалы

все сериалы на PB.wtf

RePack

FAR CRY 5
  
Magnet ссылка

Блаженство / Bliss (Джо Бегос) [2019, Ужасы, BDRip 1080p] AVO [А.Важенин [BadBajo] piratbit.pw

Блаженство через торрент piratbit.pw

Размер: 9.04 GB | Добавлен: 1 год 1 мес. назад | Торрент скачан:13 раз
Скачать  

05-03-2020 11:03 Блаженство Скачать торрент  

Блаженство | Bliss
Год выпуска: 2019
Страна: США
Студия: Channel 83 Films
Жанр: Ужасы
Продолжительность: 01:20:25
Перевод: Авторский (одноголосый) |
Субтитры: Английские

Режиссер: Джо Бегос

rating


В ролях: Дора Мэдисон, Тру Коллинз, Риз Уэйкфилд, Джереми Гарднер, Грэхэм Скиппер, Крис МакКенна, Рэйчел Эйвери, Марк Бельцман, Джордж Уэндт, Абрахам Бенруби

Описание: Молодая перспективная художница из Лос-Анджелеса Деззи сталкивается с творческим кризисом. Девушка никак не может закончить уже оплаченную работу и решает найти вдохновение в отвязных вечеринках — алкоголь, наркотики и прочие развлечения плоти — она пробует всё, до чего может дотянуться. После нескольких дней такого времяпрепровождения Деззи снова ощущает прилив творческой энергии и начинает рисовать. Но вместе с этим она теперь ощущает и неутолимую потребность пить кровь.

Качество: BDRip 1080p
Формат: MKV

Видео: 1920Х808, ~12 600 Kbps, 23.976 (24000/1001) FPS
Аудио#1: Русский: DTS, 6 ch, 1 509 Kbps (BadBajo)
Аудио#2: Русский: AC3, 6 ch, 448 Kbps (BadBajo)
Аудио#3: Английский: DTS, 6 ch, 1 509 Kbps
скриншот  скриншот  скриншот  скриншот  скриншот  

Общее
Уникальный идентификатор : 236417731971568262858439076255594758904 (0xB1DC6620DAAF59D360E0785800F0C2F8)
Полное имя : D:\Bliss.2019.DTS_rus_BadBajo.mkv
Формат : Matroska
Версия формата : Version 4 / Version 2
Размер файла : 9,04 Гбайт
Продолжительность : 1 ч. 20 м.
Общий поток : 16,1 Мбит/сек
Название фильма : Bliss.2019.DTS_rus_BadBajo
Дата кодирования : UTC 2020-03-05 10:03:33
Программа кодирования : mkvmerge v42.0.0 ('Overtime') 64-bit
Библиотека кодирования : libebml v1.3.10 + libmatroska v1.5.2
Обложка : Yes
Attachments : cover.jpg / small_cover.jpg

Видео
Идентификатор : 1
Формат : AVC
Формат/Информация : Advanced Video Codec
Профиль формата : High@L4.1
Параметр CABAC формата : Да
Параметр RefFrames формата : 5 кадров
Идентификатор кодека : V_MPEG4/ISO/AVC
Продолжительность : 1 ч. 20 м.
Битрейт : 12,6 Мбит/сек
Ширина : 1920 пикселей
Высота : 808 пикселей
Соотношение сторон : 2,40:1
Режим частоты кадров : Постоянный
Частота кадров : 23,976 (24000/1001) кадра/сек
Цветовое пространство : YUV
Субдискретизация насыщенности : 4:2:0
Битовая глубина : 8 бит
Тип развёртки : Прогрессивная
Бит/(Пиксели*Кадры) : 0.340
Размер потока : 6,91 Гбайт (76%)
Библиотека кодирования : x264 core 159 r2991 1771b55
Настройки программы : cabac=1 / ref=5 / deblock=1:-3:-3 / analyse=0x3:0x113 / me=umh / subme=8 / psy=1 / psy_rd=1.15:0.00 / mixed_ref=1 / me_range=32 / chroma_me=1 / trellis=2 / 8x8dct=1 / cqm=0 / deadzone=21,11 / fast_pskip=1 / chroma_qp_offset=-2 / threads=25 / lookahead_threads=4 / sliced_threads=0 / nr=0 / decimate=1 / interlaced=0 / bluray_compat=0 / constrained_intra=0 / bframes=3 / b_pyramid=2 / b_adapt=2 / b_bias=0 / direct=3 / weightb=1 / open_gop=0 / weightp=2 / keyint=240 / keyint_min=24 / scenecut=40 / intra_refresh=0 / rc_lookahead=50 / rc=2pass / mbtree=1 / bitrate=12632 / ratetol=1.0 / qcomp=0.60 / qpmin=0 / qpmax=69 / qpstep=4 / cplxblur=20.0 / qblur=0.5 / ip_ratio=1.40 / aq=3:0.70
Default : Да
Forced : Нет

Аудио #1
Идентификатор : 2
Формат : DTS
Формат/Информация : Digital Theater Systems
Режим : 16
Параметр Endianness формата : Big
Идентификатор кодека : A_DTS
Продолжительность : 1 ч. 20 м.
Вид битрейта : Постоянный
Битрейт : 1510 Кбит/сек
Каналы : 6 каналов
Расположение каналов : Front: L C R, Side: L R, LFE
Частота : 48,0 КГц
Частота кадров : 93,750 кадра/сек (512 spf)
Битовая глубина : 24 бит
Метод сжатия : С потерями
Размер потока : 868 Мбайт (9%)
Заголовок : Bliss.2019.DTS_rus_BadBajo
Язык : Russian
Default : Да
Forced : Да

Аудио #2
Идентификатор : 3
Формат : AC-3
Формат/Информация : Audio Coding 3
Расширение режима : CM (complete main)
Параметр Endianness формата : Big
Идентификатор кодека : A_AC3
Продолжительность : 1 ч. 20 м.
Вид битрейта : Постоянный
Битрейт : 448 Кбит/сек
Каналы : 6 каналов
Расположение каналов : Front: L C R, Side: L R, LFE
Частота : 48,0 КГц
Частота кадров : 31,250 кадров/сек (1536 spf)
Метод сжатия : С потерями
Размер потока : 258 Мбайт (3%)
Заголовок : Bliss.2019.AC3_rus_BadBajo
Язык : Russian
Default : Нет
Forced : Нет

Аудио #3
Идентификатор : 4
Формат : DTS
Формат/Информация : Digital Theater Systems
Режим : 16
Параметр Endianness формата : Big
Идентификатор кодека : A_DTS
Продолжительность : 1 ч. 20 м.
Вид битрейта : Постоянный
Битрейт : 1509 Кбит/сек
Каналы : 6 каналов
Расположение каналов : Front: L C R, Side: L R, LFE
Частота : 48,0 КГц
Частота кадров : 93,750 кадра/сек (512 spf)
Битовая глубина : 24 бит
Метод сжатия : С потерями
Размер потока : 868 Мбайт (9%)
Заголовок : Bliss.2019.DTS_eng
Язык : English
Default : Нет
Forced : Нет

Текст #1
Идентификатор : 5
Формат : UTF-8
Идентификатор кодека : S_TEXT/UTF8
Идентификатор кодека/Информация : UTF-8 Plain Text
Язык : English
Default : Нет
Forced : Нет

Текст #2
Идентификатор : 6
Формат : UTF-8
Идентификатор кодека : S_TEXT/UTF8
Идентификатор кодека/Информация : UTF-8 Plain Text
Заголовок : SDH
Язык : English
Default : Нет
Forced : Нет

Меню
00:00:00.000 : en:Chapter 01
00:11:30.690 : en:Chapter 02
00:21:50.768 : en:Chapter 03
00:30:03.260 : en:Chapter 04
00:40:55.620 : en:Chapter 05
00:51:40.097 : en:Chapter 06
00:58:55.615 : en:Chapter 07
01:11:05.970 : en:Chapter 08

piratbit.pw



Скачать Блаженство через торрент https://b.radikal.ru/b14/2003/07/4f0515ebdac6.jpg Скачать фильм Блаженство через торрент бесплантно в хорошем качестве Описание: Молодая перспективная художница из Лос-Анджелеса Деззи сталкивается с творческим кризисом. Девушка никак не может закончить уже ... 10 10 5
Торрент: Зарегистрирован [2020-03-05 11:03] · скачан: 13 раз
Статус: T временная
Размер: 9.04 GB
Как cкачать? Как скачать Блаженство через торрент | UTorrent

% Раздел Тема Автор DL S | L
Порно фильмы с сюжетом [ 643 MB ] Сексуальное Блаженство / Sexual Bliss [2016 All Sex Couples DVDRip Оригинальный] Pir@tya2010 Скачать
1 | 0
Порно фильмы с русским переводом [ 1.46 GB ] Подростковое Блаженство #8. / Teen Bliss #8. [2014 Gonzo Anal. WEB-DLRip 540 р. Язык: Русский.] Pir@tya2010 Скачать
1 | 0
Порно фильмы с русским переводом [ 1.48 GB ] Подростковое Блаженство #7. / Teen Bliss #7. [2014 Gonzo Anal. WEB-DLRip 540р. Язык: Русский.] Pir@tya2010 Скачать
1 | 0
Гонзо [ 1.51 GB ] Подростковое Блаженство 6 / Teen Bliss 6 [2014 Gonzo Anal WEB-DLRip Оригинал] Magnat Скачать
1 | 0
Порно фильмы с русским переводом [ 1.57 GB ] Подростковое Блаженство #5. / Teen Bliss #5. [2013 Gonzo Anal. WEB-DLRip Язык: Русский.] Pir@tya2010 Скачать
1 | 1
Порно фильмы с русским переводом [ 1.4 GB ] Подростковое Блаженство #3 / Teen Bliss #3 [2013 Gonzo Anal. WEB-DLRip 540р. Язык русский.] Pir@tya2010 Скачать
1 | 1
Гонзо [ 1.43 GB ] Подростковое Блаженство / Teen Bliss [2013 Gonzo Anal. WEB-DLRip 540р Оригинал] Pir@tya2010 Скачать
1 | 0

28-11-2019 20:33  

Отключить всю рекламу на сайте

    Дорогой пользователь! Огромная просьба, поблагодарите релизера, оцените раздачу и оставьте свои комментарий, если Вы скачали Блаженство через торрент бесплатно! Внесите свою лепту в развитие PiratBit!
    Комментировать посты могут только пользователи прошедшие не сложную регистрацию
    Показать сообщения:    

    Блаженство через торрент
    Скачать бесплатно Блаженство
    Блаженство скачать торрент
    Блаженство смотреть онлайн
    Cкачать фильм Блаженство бесплатно
    Блаженство скачать торрент в хорошем качестве
    Блаженство смотреть онлайн бесплатно в хорошем качестве


    Вы не можете начинать темы
    Вы не можете отвечать на сообщения
    Вы не можете редактировать свои сообщения
    Вы не можете удалять свои сообщения
    Вы не можете голосовать в опросах
    Вы не можете прикреплять файлы к сообщениям
    Вы можете скачивать файлы