Ссылка на приватное зеркало нашего сайта всего за 1$. Внимание количество ограничено!!!

2 сезон

iTunes

iTunes

1

iTunes

iTunes

iTunes

WEBRip

iTunes

30
pack

Вам бонус

ВАЖНО

!!Акция!!

Alien_RageХит недели

RePack

Horizon Zero Dawn

ИГРА 18+

pack

RePack

jed

!!Акция!!

Alien_Rage

RePack

fifa19

RePack

Assassins Creed: Odyssey

RePack

NEED FOR SPEED™ PAYBACK

4 сезон

9 сезон

Бесстыжие 9 сезон

Все сериалы

все сериалы на PB.wtf

RePack

FAR CRY 5
  

Университет монстров / Monsters University (Дэн Скэнлон) [2013, Мультфильм, фэнтези, комедия, приключения, семейный, UHD BDRemux 2160p] DUB [Лицензия] piratbit.pw

Университет монстров через торрент piratbit.pw

Размер: 36.15 GB | Добавлен: 6 мес. назад | Торрент скачан:8 раз
Скачать  

03-03-2020 19:55 Университет монстров Скачать торрент  

Университет монстров | Monsters University
Год выпуска: 2013
Страна: США
Студия: Pixar Animation Studios, Walt Disney Pictures
Жанр: Мультфильм, фэнтези, комедия, приключения, семейный, полнометражный
Продолжительность: 01:44:18
Перевод: Дублированный | Лицензия
Субтитры: Русские (Full), английские

Режиссер: Дэн Скэнлон

rating

В ролях: Джон Гудмен, Билли Кристал, Стив Бушеми, Хелен Миррен, Питер Сон, Джоэл Мюррэй, Шон Хейс, Дэйв Фоли, Чарли Дэй, Альфред Молина, Натан Филлион, Обри Плаза, Бобби Мойнихэн мл.

Описание: Майк и Салли — самые опытные пугатели в Монстрополисе, но так было далеко не всегда. Когда они встретились впервые, эти совершенно непохожие друг на друга монстры терпеть друг друга не могли. «Университет Монстров» — история о том, как наши старые знакомые прошли путь от взаимной неприязни к крепкой дружбе.

Качество: UHD BDRemux 2160p
Формат: MKV

Видео: 3840x2160 at 23.976 fps, MPEG-H HEVC HDR Video, 40900 kbps avg
Аудио #01: 48 kHz, AC3, 5.1, 640 Kbps | Дублированный | RUS |
Аудио #02: 48 kHz, TrueHD, 7.1, 7403 Kbps | Оригинал | ENG |
Аудио #03: 48 kHz, AC3, 5.1, 640 Kbps | Оригинал | ENG |
скриншот  скриншот  скриншот  скриншот  скриншот  

General
Unique ID : 55941486582388867364866769473441406099 (0x2A15F03BEAAB66E850FB4C5854B09C93)
Complete name : E:Video111Monsters.University.2013.BDREMUX.2160p.HDR.seleZen.mkv
Format : Matroska
Format version : Version 4
File size : 36.2 GiB
Duration : 1 h 44 min
Overall bit rate mode : Variable
Overall bit rate : 49.6 Mb/s
Movie name : Monsters University 2013 from селезень
Encoded date : UTC 2020-03-03 19:34:16
Writing application : mkvmerge v40.0.0 ('Old Town Road + Pony') 64-bit
Writing library : libebml v1.3.9 + libmatroska v1.5.2

Video
ID : 1
Format : HEVC
Format/Info : High Efficiency Video Coding
Format profile : Main 10@L5.1@High
HDR format : SMPTE ST 2086, HDR10 compatible
Codec ID : V_MPEGH/ISO/HEVC
Duration : 1 h 44 min
Bit rate : 40.9 Mb/s
Width : 3 840 pixels
Height : 2 160 pixels
Display aspect ratio : 16:9
Frame rate mode : Constant
Frame rate : 23.976 (24000/1001) FPS
Color space : YUV
Chroma subsampling : 4:2:0 (Type 2)
Bit depth : 10 bits
Bits/(Pixel*Frame) : 0.205
Stream size : 29.8 GiB (82%)
Writing library : ATEME Titan File 3.9.0 (4.9.0.0)
Language : English
Default : Yes
Forced : No
Color range : Limited
Color primaries : BT.2020
Transfer characteristics : PQ
Matrix coefficients : BT.2020 non-constant
Mastering display color pri : Display P3
Mastering display luminance : min: 0.0000 cd/m2, max: 1000 cd/m2

Audio #1
ID : 2
Format : AC-3
Format/Info : Audio Coding 3
Commercial name : Dolby Digital
Codec ID : A_AC3
Duration : 1 h 44 min
Bit rate mode : Constant
Bit rate : 640 kb/s
Channel(s) : 6 channels
Channel layout : L R C LFE Ls Rs
Sampling rate : 48.0 kHz
Frame rate : 31.250 FPS (1536 SPF)
Compression mode : Lossy
Stream size : 477 MiB (1%)
Title : Dub [License]
Language : Russian
Service kind : Complete Main
Default : Yes
Forced : Yes

Audio #2
ID : 3
Format : MLP FBA 16-ch
Format/Info : Meridian Lossless Packing FBA with 16-channel presentation
Commercial name : Dolby TrueHD with Dolby Atmos
Codec ID : A_TRUEHD
Duration : 1 h 44 min
Bit rate mode : Variable
Bit rate : 7 403 kb/s
Maximum bit rate : 9 756 kb/s
Channel(s) : 8 channels
Channel layout : L R C LFE Ls Rs Lb Rb
Sampling rate : 48.0 kHz
Frame rate : 1 200.000 FPS (40 SPF)
Compression mode : Lossless
Stream size : 5.39 GiB (15%)
Title : Original
Language : English
Default : No
Forced : No
Number of dynamic objects : 13
Bed channel count : 1 channel
Bed channel configuration : LFE

Audio #3
ID : 4
Format : AC-3
Format/Info : Audio Coding 3
Commercial name : Dolby Digital
Codec ID : A_AC3
Duration : 1 h 44 min
Bit rate mode : Constant
Bit rate : 640 kb/s
Channel(s) : 6 channels
Channel layout : L R C LFE Ls Rs
Sampling rate : 48.0 kHz
Frame rate : 31.250 FPS (1536 SPF)
Compression mode : Lossy
Stream size : 477 MiB (1%)
Language : English
Service kind : Complete Main
Default : No
Forced : No

Text #1
ID : 5
Format : UTF-8
Codec ID : S_TEXT/UTF8
Codec ID/Info : UTF-8 Plain Text
Duration : 1 h 42 min
Bit rate : 88 b/s
Count of elements : 1213
Stream size : 66.2 KiB (0%)
Title : Full
Language : Russian
Default : No
Forced : No

Text #2
ID : 6
Format : UTF-8
Codec ID : S_TEXT/UTF8
Codec ID/Info : UTF-8 Plain Text
Duration : 1 h 42 min
Bit rate : 56 b/s
Count of elements : 1367
Stream size : 42.4 KiB (0%)
Title : Full
Language : English
Default : No
Forced : No

Menu
00:00:00.000 : en:Глава 01
00:06:27.387 : en:Глава 02
00:07:07.552 : en:Глава 03
00:10:54.779 : en:Глава 04
00:12:20.615 : en:Глава 05
00:16:10.636 : en:Глава 06
00:18:16.303 : en:Глава 07
00:19:38.260 : en:Глава 08
00:21:07.516 : en:Глава 09
00:23:44.297 : en:Глава 10
00:29:23.386 : en:Глава 11
00:30:40.130 : en:Глава 12
00:33:38.766 : en:Глава 13
00:36:31.647 : en:Глава 14
00:38:20.089 : en:Глава 15
00:39:23.235 : en:Глава 16
00:45:14.002 : en:Глава 17
00:47:15.499 : en:Глава 18
00:51:08.815 : en:Глава 19
00:55:21.859 : en:Глава 20
00:57:30.988 : en:Глава 21
01:01:42.907 : en:Глава 22
01:04:37.957 : en:Глава 23
01:07:33.674 : en:Глава 24
01:14:11.988 : en:Глава 25
01:18:08.516 : en:Глава 26
01:19:26.386 : en:Глава 27
01:23:54.070 : en:Глава 28
01:24:39.323 : en:Глава 29
01:28:00.900 : en:Глава 30
01:32:52.024 : en:Глава 31
01:34:24.700 : en:Глава 32

piratbit.pw



Скачать Университет монстров через торрент https://img10.lostpic.net/2020/03/03/e6b1aeebe775cff5b9b049639a98b32c.jpg Скачать фильм Университет монстров через торрент бесплантно в хорошем качестве Описание: Майк и Салли — самые опытные пугатели в Монстрополисе, но так было далеко не всегда. Когда они встретились впервые, эти ... 10 10 2
Торрент: Зарегистрирован [2020-03-03 19:55] · скачан: 8 раз
Статус: √ проверено
Размер: 36.15 GB
Как cкачать? Как скачать Университет монстров через торрент | qTorrent

% Раздел Тема Автор DL S | L
Зарубежные Мультфильмы (BDRip 1080p, 720p, Blu-ray, BD-Remux) [ 5.4 GB ] Университет монстров / Monsters University [2013 мультфильм BDRip 1080p HEVC ()] Мичман37 Скачать
1 | 0
Мультфильмы (48-60 fps) [ 3.92 GB ] Университет монстров / Monsters University [2013 мультфильм BDRip 720p Dub] 60fps от R.G. HD-Films slaventi-69 Скачать
2 | 0
T 3D Мультфильмы [ 4.56 GB ] Университет монстров в 3D / Monsters University in 3D [2013 мультфильм BDRip 1080p ] Анаглиф slaventi-69 Скачать
1 | 0
Иностранные мультфильмы [ 2.91 GB ] Корпорация монстров и Университет монстров / Monsters Inc. and Monsters University [2001 2013 мультфильм HDRip-AVC] DUB [] от R.G. PiratFilms Demonessa Скачать
1 | 0
Иностранные мультфильмы [ 2.18 GB ] Университет монстров / Monsters University [2013 Мультфильм BDRip. ] kostantin Скачать
2 | 0
Зарубежные Мультфильмы (DVD) [ 6.49 GB ] Университет монстров / Monsters University [2013 мультфильм DVD9] R5 voovaz Скачать
1 | 0
Иностранные мультфильмы [ 1.37 GB ] Университет монстров / Monsters University [2013 мультфильм HDRip Russia] Seedtank Скачать
1 | 0

28-11-2019 20:33  

Отключить всю рекламу на сайте

    Дорогой пользователь! Огромная просьба, поблагодарите релизера, оцените раздачу и оставьте свои комментарий, если Вы скачали Университет монстров через торрент бесплатно! Внесите свою лепту в развитие PiratBit!
    Комментировать посты могут только пользователи прошедшие не сложную регистрацию
    Показать сообщения:    

    Университет монстров через торрент
    Скачать бесплатно Университет монстров
    Университет монстров скачать торрент
    Университет монстров смотреть онлайн
    Cкачать фильм Университет монстров бесплатно
    Университет монстров скачать торрент в хорошем качестве
    Университет монстров смотреть онлайн бесплатно в хорошем качестве


    Вы не можете начинать темы
    Вы не можете отвечать на сообщения
    Вы не можете редактировать свои сообщения
    Вы не можете удалять свои сообщения
    Вы не можете голосовать в опросах
    Вы не можете прикреплять файлы к сообщениям
    Вы можете скачивать файлы