1 сезон

1 сезон

iTunes

1

КиноПоиск HD

Кинопоиск HD

iTunes

13

1 сезон

RePack

30

Ultimate

ВАЖНО

ИГРА 18+

pack

RePack

MK11
pack

Легкие деньги

RePack

jed

RePack

fifa19

RePack

RDR2

RePack

NEED FOR SPEED™ PAYBACK

4 сезон

9 сезон

Бесстыжие 9 сезон

Все сериалы

все сериалы на PB.wtf

RePack

FAR CRY 5
  
Magnet ссылка

Маленькая помощь / A Little Help (Майкл Дж. Вейторн) [2010, драма, комедия, HDRip-AVC] AVO [Чадов], Eng, Sub (rus/eng) piratbit.pw

Маленькая помощь через торрент piratbit.pw

Размер: 2.04 GB | Добавлен: 1 год 1 мес. назад | Торрент скачан:8 раз
Скачать  

03-03-2020 18:00 Маленькая помощь Скачать торрент  

Маленькая помощь | A Little Help
«Ever have one of those lives?»

Год выпуска: 2010
Страна: США | Secret Handshake Entertainment
Жанр: драма, комедия
Продолжительность: 01:48:50
Перевод: Авторский (Михаил Чадов по переводу doc_ravik) + Оригинал (английский)

Режиссер: Майкл Дж. Вейторн

В ролях: Дэниэл Ельский, Дженна Фишер, Джей Клэйц, Брук Смит, Крис О’Доннелл, Роберт Бенедикт, Зэк Пейдж, Рон Лайбмен, Лесли Энн Уоррен, Сара Кэпнер, Джеймс Ребхорн, Мишель Хёрст, Мэтт Оберг, Брэндон Перлер, Майлз Уильямс

Описание: «Маленькая помощь» — история нескольких месяцев из жизни гигиениста-стоматолога Лоры. Пытаясь совладать с резкими переменами в своей жизни и жизни своего сына, она невольно становится на путь обмана.

rating
Рейтинг R - Детям до 17 лет обязательно присутствие родителей

Файл
Формат: MKV
Видео кодек: x264
Аудио кодек: AC3
Качество: HDRip-AVC
Видео: 1024x576 (16:9), 23.976 fps, 1866 kbps, 0.132 bit/pixel
Аудио #1: Русский, AC3, 6 chnls, 384 kbps | AVO, М. Чадов
Аудио #2: Английский, AC3, 6 chnls, 384 kbps | Original
Скачать: Семпл
x264 [info]: frame I:1151 Avg QP:15.22 size: 85559
x264 [info]: frame P:34740 Avg QP:17.20 size: 23609
x264 [info]: frame B:120682 Avg QP:19.75 size: 5356
x264 [info]: consecutive B-frames: 2.0% 2.9% 7.4% 22.3% 18.1% 43.8% 2.4% 0.8% 0.3% 0.1% 0.0%
Format : Matroska
Format version : Version 2
File size : 2.04 GiB
Duration : 1 h 48 min
Overall bit rate : 2 687 kb/s
Movie name : A Little Help (2010) - Rip by -{am}-
Encoded date : UTC 2020-02-28 17:11:08
Writing application : mkvmerge v6.9.1 ('Blue Panther') 32bit built on Apr 18 2014 18:15:44
Writing library : libebml v1.3.0 + libmatroska v1.4.1
Attachments : poster.jpg

Video
ID : 1
Format : AVC
Format/Info : Advanced Video Codec
Format profile : High@L4.1
Format settings : CABAC / 14 Ref Frames
Format settings, CABAC : Yes
Format settings, Reference : 14 frames
Codec ID : V_MPEG4/ISO/AVC
Duration : 1 h 48 min
Bit rate : 1 866 kb/s
Width : 1 024 pixels
Height : 576 pixels
Display aspect ratio : 16:9
Frame rate mode : Constant
Frame rate : 23.976 (24000/1001) FPS
Color space : YUV
Chroma subsampling : 4:2:0
Bit depth : 8 bits
Scan type : Progressive
Bits/(Pixel*Frame) : 0.132
Stream size : 1.42 GiB (69%)
Title : A.Little.Help.2010.{am}.1024.Rus.Eng.Sub
Writing library : x264 core 159 r2991+49 524a90c t_mod_New [0-bit@all X86_64]
Encoding settings : cabac=1 / ref=14 / deblock=1:-2:-1 / analyse=0x3:0x113 / me=umh / subme=11 / psy=1 / fade_compensate=0.00 / psy_rd=1.00:0.00 / mixed_ref=1 / me_range=32 / chroma_me=1 / trellis=2 / 8x8dct=1 / cqm=2 / deadzone=21,11 / fast_pskip=0 / chroma_qp_offset=-4 / threads=18 / lookahead_threads=4 / sliced_threads=0 / nr=0 / decimate=0 / interlaced=0 / bluray_compat=0 / constrained_intra=0 / fgo=0 / bframes=10 / b_pyramid=2 / b_adapt=2 / b_bias=0 / direct=3 / weightb=1 / open_gop=0 / weightp=2 / keyint=250 / keyint_min=23 / scenecut=40 / intra_refresh=0 / rc_lookahead=40 / rc=crf / mbtree=0 / crf=18.3000 / qcomp=0.60 / qpmin=0:0:0 / qpmax=69:69:69 / qpstep=4 / vbv_maxrate=50000 / vbv_bufsize=62500 / crf_max=0.0 / nal_hrd=none / filler=0 / ip_ratio=1.40 / pb_ratio=1.30 / aq=3:1.00 / aq-sensitivity=10.00 / aq-factor=1.00:1.00:1.00 / aq2=0 / aq3=0
Language : English
Default : Yes
Forced : No

Audio #1
ID : 2
Format : AC-3
Format/Info : Audio Coding 3
Commercial name : Dolby Digital
Codec ID : A_AC3
Duration : 1 h 48 min
Bit rate mode : Constant
Bit rate : 384 kb/s
Channel(s) : 6 channels
Channel layout : L R C LFE Ls Rs
Sampling rate : 48.0 kHz
Frame rate : 31.250 FPS (1536 SPF)
Compression mode : Lossy
Stream size : 299 MiB (14%)
Title : AVO, Михаил Чадов
Language : Russian
Service kind : Complete Main
Default : Yes
Forced : No

Audio #2
ID : 3
Format : AC-3
Format/Info : Audio Coding 3
Commercial name : Dolby Digital
Codec ID : A_AC3
Duration : 1 h 48 min
Bit rate mode : Constant
Bit rate : 384 kb/s
Channel(s) : 6 channels
Channel layout : L R C LFE Ls Rs
Sampling rate : 48.0 kHz
Frame rate : 31.250 FPS (1536 SPF)
Compression mode : Lossy
Stream size : 299 MiB (14%)
Title : Original
Language : English
Service kind : Complete Main
Default : No
Forced : No

Text #1
ID : 4
Format : UTF-8
Codec ID : S_TEXT/UTF8
Codec ID/Info : UTF-8 Plain Text
Title : doc_ravik
Language : Russian
Default : Yes
Forced : No

Text #2
ID : 5
Format : UTF-8
Codec ID : S_TEXT/UTF8
Codec ID/Info : UTF-8 Plain Text
Language : English
Default : No
Forced : No

Menu
00:00:00.000 : :Chapter 01
00:13:00.000 : :Chapter 02
00:26:00.000 : :Chapter 03
00:39:00.000 : :Chapter 04
00:52:00.000 : :Chapter 05
01:05:00.000 : :Chapter 06
01:18:00.000 : :Chapter 07
01:31:00.000 : :Chapter 08
01:44:00.000 : :Chapter 09
piratbit.pw



Скачать Маленькая помощь через торрент https://img10.lostpic.net/2020/03/03/4c461bb963b6eb2ad3e9bc7e80680dd2.th.png Скачать фильм Маленькая помощь через торрент бесплантно в хорошем качестве Описание: «Маленькая помощь» — история нескольких месяцев из жизни гигиениста-стоматолога Лоры. Пытаясь совладать с резкими переменами в ... 5 10 1
Торрент: Зарегистрирован [2020-03-03 18:00] · скачан: 8 раз
Статус: √ проверено
Размер: 2.04 GB
Как cкачать? Как скачать Маленькая помощь через торрент | UTorrent

% Раздел Тема Автор DL S | L
Порно фильмы с сюжетом [ 967 MB ] Маленькая Помощь от Моих Подруг / A Little Help From My Friends [2017 Affairs & Love Triangles Couples Feature Threesomes WEB-DL Оригинальный] nn99nn Скачать
1 | 0
T Фильмы 2010 [ 1.46 GB ] Маленькая помощь / A Little Help [2010 HDRip VO] PsYcho Скачать
1 | 0

28-11-2019 20:33  

Отключить всю рекламу на сайте

    Дорогой пользователь! Огромная просьба, поблагодарите релизера, оцените раздачу и оставьте свои комментарий, если Вы скачали Маленькая помощь через торрент бесплатно! Внесите свою лепту в развитие PiratBit!
    Комментировать посты могут только пользователи прошедшие не сложную регистрацию
    Показать сообщения:    

    Маленькая помощь через торрент
    Скачать бесплатно Маленькая помощь
    Маленькая помощь скачать торрент
    Маленькая помощь смотреть онлайн
    Cкачать фильм Маленькая помощь бесплатно
    Маленькая помощь скачать торрент в хорошем качестве
    Маленькая помощь смотреть онлайн бесплатно в хорошем качестве


    Вы не можете начинать темы
    Вы не можете отвечать на сообщения
    Вы не можете редактировать свои сообщения
    Вы не можете удалять свои сообщения
    Вы не можете голосовать в опросах
    Вы не можете прикреплять файлы к сообщениям
    Вы можете скачивать файлы