Ссылка на приватное зеркало нашего сайта всего за 1$. Внимание количество ограничено!!!

2 сезон

iTunes

iTunes

1

iTunes

iTunes

iTunes

WEBRip

iTunes

30
pack

Вам бонус

ВАЖНО

!!Акция!!

Alien_RageХит недели

RePack

Horizon Zero Dawn

ИГРА 18+

pack

RePack

jed

!!Акция!!

Alien_Rage

RePack

fifa19

RePack

Assassins Creed: Odyssey

RePack

NEED FOR SPEED™ PAYBACK

4 сезон

9 сезон

Бесстыжие 9 сезон

Все сериалы

все сериалы на PB.wtf

RePack

FAR CRY 5
  

Проигранное место (Надежда Михалкова) [2018, Ужасы, WEB-DL 1080p] [iTunes] piratbit.pw

Проигранное место через торрент piratbit.pw

Размер: 3.52 GB | Добавлен: 6 мес. назад | Торрент скачан:65 раз
Скачать  

03-03-2020 04:18 Проигранное место Скачать торрент  

Проигранное место
Год выпуска: 2018
Страна: Россия
Жанр: Ужасы
Продолжительность: 01:31:46
Перевод: Не требуется | iTunes
Субтитры: отсутствуют

Режиссер: Надежда Михалкова

rating

В ролях: Анна Михалкова, Алексей Дякин, Ирина Мартыненко, Алексей Мартынов, Никита Еленев, Сергей Городничий, Валентина Ляпина, Анастасия Акатова, Арам Вардеванян, Ольга Озоллапиня

Описание: Среди старшеклассников бытует легенда о «проигранном месте» в кинотеатре - говорят, что каждый, кто покупает туда билет, обречен на смерть. Никто не воспринимает эту историю всерьез, но вскоре серия жутких убийств заставляет компанию друзей вспомнить о зловещей легенде. Старшеклассники начинают собственное расследование, но сами оказываются под подозрением. Загнанные в ловушку страхом и недоверием друзья решают бросить вызов призраку «проигранного места».

Качество: WEB-DL 1080p
Формат: MKV

Видео: H.264, 5119 Kb/s, 1920x998
Аудио Russian: 48 kHz, AC3, 384 Kb/s, 6 ch
скриншот  скриншот  скриншот  скриншот  

Format : Matroska
Format version : Version 4 / Version 2
File size : 3.52 GiB
Duration : 1 h 31 min
Overall bit rate : 5 497 kb/s
Movie name : ELEKTRI4KA.UNIONGANG
Encoded date : UTC 2020-03-02 20:31:03
Writing application : mkvmerge v8.3.0 ('Over the Horizon') 64bit
Writing library : libebml v1.3.1 + libmatroska v1.4.2

Video
ID : 1
Format : AVC
Format/Info : Advanced Video Codec
Format profile : High@L4
Format settings, CABAC : Yes
Format settings, Reference frames : 4 frames
Codec ID : V_MPEG4/ISO/AVC
Duration : 1 h 31 min
Bit rate : 5 119 kb/s
Width : 1 920 pixels
Height : 998 pixels
Display aspect ratio : 1.924
Frame rate mode : Constant
Frame rate : 25.000 FPS
Color space : YUV
Chroma subsampling : 4:2:0
Bit depth : 8 bits
Scan type : Progressive
Bits/(Pixel*Frame) : 0.107
Stream size : 3.28 GiB (93%)
Writing library : x264 core 142
Encoding settings : cabac=1 / ref=3 / deblock=1:0:0 / analyse=0x3:0x113 / me=hex / subme=7 / psy=1 / psy_rd=1.00:0.00 / mixed_ref=1 / me_range=16 / chroma_me=1 / trellis=1 / 8x8dct=1 / cqm=0 / deadzone=21,11 / fast_pskip=1 / chroma_qp_offset=-2 / threads=48 / lookahead_threads=7 / sliced_threads=0 / nr=0 / decimate=1 / interlaced=0 / bluray_compat=0 / constrained_intra=0 / bframes=6 / b_pyramid=2 / b_adapt=1 / b_bias=0 / direct=1 / weightb=1 / open_gop=0 / weightp=2 / keyint=50 / keyint_min=26 / scenecut=0 / intra_refresh=0 / rc_lookahead=40 / rc=2pass / mbtree=1 / bitrate=5120 / ratetol=1.0 / qcomp=0.60 / qpmin=0 / qpmax=69 / qpstep=4 / cplxblur=20.0 / qblur=0.5 / vbv_maxrate=7680 / vbv_bufsize=20480 / nal_hrd=none / filler=0 / ip_ratio=1.40 / aq=1:1.00
Language : Russian
Default : Yes
Forced : No

Audio
ID : 2
Format : AC-3
Format/Info : Audio Coding 3
Mode extension : CM (complete main)
Format settings, Endianness : Big
Codec ID : A_AC3
Duration : 1 h 31 min
Bit rate mode : Constant
Bit rate : 384 kb/s
Channel(s) : 6 channels
Channel positions : Front: L C R, Side: L R, LFE
Sampling rate : 48.0 kHz
Frame rate : 31.250 FPS (1536 spf)
Bit depth : 16 bits
Compression mode : Lossy
Stream size : 252 MiB (7%)
Title : iTunes
Language : Russian
Default : Yes
Forced : No

Menu
00:00:00.000 : en:Глава 1
00:05:59.000 : en:Глава 2
00:12:41.000 : en:Глава 3
00:18:48.000 : en:Глава 4
00:23:53.000 : en:Глава 5
00:29:17.000 : en:Глава 6
00:35:01.000 : en:Глава 7
00:41:06.000 : en:Глава 8
00:46:10.000 : en:Глава 9
00:51:18.000 : en:Глава 10
00:57:24.000 : en:Глава 11
01:02:47.000 : en:Глава 12
01:08:02.000 : en:Глава 13
01:14:07.000 : en:Глава 14
01:19:23.000 : en:Глава 15
01:24:27.000 : en:Глава 16
01:30:25.000 : en:Глава 17

piratbit.pw



Скачать Проигранное место через торрент https://i4.imageban.ru/out/2018/11/03/f09f18dc6904eedf16e03eadec843c40.png Скачать фильм Проигранное место через торрент бесплантно в хорошем качестве Описание: Среди старшеклассников бытует легенда о «проигранном месте» в кинотеатре - говорят, что каждый, кто покупает туда билет, обречен ... 8.9 10 8
Торрент: Зарегистрирован [2020-03-03 04:18] · скачан: 65 раз
Статус: √ проверено
Размер: 3.52 GB
Как cкачать? Как скачать Проигранное место через торрент | qTorrent

% Раздел Тема Автор DL S | L
Наши новые фильмы 2018-2019 [ 1.46 GB ] Проигранное место [2018 WEB-DLRip] bober100 Скачать
1 | 0

28-11-2019 20:33  

Отключить всю рекламу на сайте

03-03-2020 14:07 Проигранное место Скачать торрент  

слышал что родитель этой режиссерши именитый папа в мире кино.ну почему он не отговорил ребенка снимать эту никчемную шляпу с рейтингом в три балла... piratbit.pw



    Дорогой пользователь! Огромная просьба, поблагодарите релизера, оцените раздачу и оставьте свои комментарий, если Вы скачали Проигранное место через торрент бесплатно! Внесите свою лепту в развитие PiratBit!
    Комментировать посты могут только пользователи прошедшие не сложную регистрацию
    Показать сообщения:    

    Проигранное место через торрент
    Скачать бесплатно Проигранное место
    Проигранное место скачать торрент
    Проигранное место смотреть онлайн
    Cкачать фильм Проигранное место бесплатно
    Проигранное место скачать торрент в хорошем качестве
    Проигранное место смотреть онлайн бесплатно в хорошем качестве


    Вы не можете начинать темы
    Вы не можете отвечать на сообщения
    Вы не можете редактировать свои сообщения
    Вы не можете удалять свои сообщения
    Вы не можете голосовать в опросах
    Вы не можете прикреплять файлы к сообщениям
    Вы можете скачивать файлы