Ссылка на приватное зеркало нашего сайта всего за 1$. Внимание количество ограничено!!!

2 сезон

iTunes

iTunes

1

iTunes

iTunes

iTunes

WEBRip

iTunes

30
pack

Вам бонус

ВАЖНО

!!Акция!!

Alien_RageХит недели

RePack

Horizon Zero Dawn

ИГРА 18+

pack

RePack

jed

!!Акция!!

Alien_Rage

RePack

fifa19

RePack

Assassins Creed: Odyssey

RePack

NEED FOR SPEED™ PAYBACK

4 сезон

9 сезон

Бесстыжие 9 сезон

Все сериалы

все сериалы на PB.wtf

RePack

FAR CRY 5
  

Ярды (Андрей Корытко) [2020, Драма, WEB-DL 1080p] [iTunes] piratbit.pw

Ярды через торрент piratbit.pw

Размер: 3.22 GB | Добавлен: 6 мес. назад | Торрент скачан:165 раз
Скачать  

02-03-2020 12:25 Ярды Скачать торрент  

Ярды
Год выпуска: 2020
Страна: Россия
Жанр: Драма
Продолжительность: 01:32:31
Перевод: Не требуется | iTunes
Субтитры: отсутствуют

Режиссер: Андрей Корытко



В ролях: Роман Евдокимов, Аскар Ильясов, Рафаэль Дурноян, Дмитрий Быков, Григорий Данцигер, Марина Митрофанова, Михаил Шкамаридин, Лана Райдер, Игорь Сергеев, Станислав Сергеев

Описание: Ярик приехал в столицу, чтобы устроить свою жизнь — добиться успеха в любимом деле, построить серьезные отношения, вместе с друзьями двигаться вперед. Но у большого города на Ярика другие планы. Все твердят, что пора смириться, стать «нормальным». Возможно ли отступить, когда на кону мечта?

Качество: WEB-DL 1080p
Формат: MKV

Видео: MPEG-4 AVC, 1920x806, 4592 Kbps, 24.000 fps
Аудио Russian: AC3, 48.0 KHz, 6 ch, 16 bits, 384 kbps
скриншот  скриншот  скриншот  скриншот  скриншот  

General
Unique ID: 328789566450552383173151180258908554319 (0xF75A9130474C514829723DC3A53FC44F)
Complete name: YARDS_2019_WEB-DL_1080p-BLUEBIRD.mkv
Format: Matroska
Format version: Version 4 / Version 2
File size: 3.22 GiB
Duration: 1 h 32 min
Overall bit rate: 4 979 kb/s
Encoded date: UTC 2020-03-01 19:29:14
Writing application: mkvmerge v43.0.0 ('The Quartermaster') 64-bit
Writing library: libebml v1.3.10 + libmatroska v1.5.2
Cover: Yes
Attachments: cover3.png

Video
ID: 1
Format: AVC
Format/Info: Advanced Video Codec
Format profile: High@L4
Format settings, CABAC: Yes
Format settings, RefFrames: 5 frames
Codec ID: V_MPEG4/ISO/AVC
Duration: 1 h 32 min
Bit rate: 4 592 kb/s
Width: 1 920 pixels
Height: 806 pixels
Display aspect ratio: 2.40:1
Frame rate mode: Constant
Frame rate: 24.000 FPS
Color space: YUV
Chroma subsampling: 4:2:0
Bit depth: 8 bits
Scan type: Progressive
Bits/(Pixel*Frame): 0.124
Stream size: 2.97 GiB (92%)
Language: English
Default: Yes
Forced: No
Color range: Limited
Color primaries: BT.709
Transfer characteristics: BT.709
Matrix coefficients: BT.709

Audio
ID: 2
Format: AC-3
Format/Info: Audio Coding 3
Format settings, Endianness: Big
Codec ID: A_AC3
Duration: 1 h 32 min
Bit rate mode: Constant
Bit rate: 384 kb/s
Channel(s): 6 channels
Channel positions: Front: L C R, Side: L R, LFE
Sampling rate: 48.0 kHz
Frame rate: 31.250 FPS (1536 SPF)
Bit depth: 16 bits
Compression mode: Lossy
Delay relative to video: -42 ms
Stream size: 254 MiB (8%)
Title: [ORIGINAL] DD 5.1 @ 384 kbps (iTunes)
Language: Russian
Service kind: Complete Main
Default: Yes
Forced: No

Menu
00:00:00.000: en:Глава 1
00:08:36.291: en:Глава 2
00:17:24.082: en:Глава 3
00:25:34.665: en:Глава 4
00:34:15.373: en:Глава 5
00:43:04.164: en:Глава 6
00:51:43.247: en:Глава 7
00:59:49.330: en:Глава 8
01:08:17.580: en:Глава 9
01:17:05.746: en:Глава 10
01:25:30.454: en:Глава 11

piratbit.pw



Скачать Ярды через торрент https://b.radikal.ru/b15/2003/fb/a5f6ee185168.png Скачать фильм Ярды через торрент бесплантно в хорошем качестве Описание: Ярик приехал в столицу, чтобы устроить свою жизнь — добиться успеха в любимом деле, построить серьезные отношения, вместе с ... 10 10 9
Торрент: Зарегистрирован [2020-03-02 12:25] · скачан: 165 раз
Статус: √ проверено
Размер: 3.22 GB
Как cкачать? Как скачать Ярды через торрент | qTorrent

% Раздел Тема Автор DL S | L
? Оформление раздач (Кино, Видео и ТВ) [ 3.07 GB ] Девять ярдов / The Whole Nine Yards [2000 BDRip 720p / 60 FPS ] alien2015 Скачать
1 | 0
Фильмы (HD 720p, 1080p) (48-60 fps) [ 3.06 GB ] Десять Ярдов / The Whole Ten Yards [2004 BDRip 720p / 60 FPS ] alien2015 Скачать
1 | 0
Наши новые фильмы 2018-2019 [ 744 MB ] Ярды [2020 WEB-DLRip] bober100 Скачать
1 | 0
Наши новые фильмы 2018-2019 [ 1.46 GB ] Ярды [2020 WEB-DLRip-AVC] bober100 Скачать
1 | 0
Наши новые фильмы 2018-2019 [ 1.46 GB ] Ярды [2020 WEB-DLRip] bober100 Скачать
1 | 0
Фильмы [HD 720p, 1080p] (Хороший звук DUB, MVO) [ 12.77 GB ] Девять ярдов / The Whole Nine Yards [2000 BDRip 1080p by msltel] DUB 2 x MVO 2 x AVO msltel Скачать
1 | 0
Фильмы [HD 720p, 1080p] (Хороший звук DUB, MVO) [ 5.66 GB ] Девять ярдов / The Whole Nine Yards [2000 BDRip 720p by msltel] DUB 2 x MVO 2 x AVO msltel Скачать
1 | 0

28-11-2019 20:33  

Отключить всю рекламу на сайте

02-03-2020 15:08 Ярды Скачать торрент  

Саша Петрова на минималках))
Как фильм, стоит тратить время?piratbit.pw



03-03-2020 06:19 Ярды Скачать торрент  

Цитата:

Лана Райдер

Актерский состав, словно порнуха.piratbit.pw



03-03-2020 10:32 Ярды Скачать торрент  

Столько пафоса в описании,что охота качать сразу пропала пожалуй,пройду мимо...piratbit.pw



    Дорогой пользователь! Огромная просьба, поблагодарите релизера, оцените раздачу и оставьте свои комментарий, если Вы скачали Ярды через торрент бесплатно! Внесите свою лепту в развитие PiratBit!
    Комментировать посты могут только пользователи прошедшие не сложную регистрацию
    Показать сообщения:    

    Ярды через торрент
    Скачать бесплатно Ярды
    Ярды скачать торрент
    Ярды смотреть онлайн
    Cкачать фильм Ярды бесплатно
    Ярды скачать торрент в хорошем качестве
    Ярды смотреть онлайн бесплатно в хорошем качестве


    Вы не можете начинать темы
    Вы не можете отвечать на сообщения
    Вы не можете редактировать свои сообщения
    Вы не можете удалять свои сообщения
    Вы не можете голосовать в опросах
    Вы не можете прикреплять файлы к сообщениям
    Вы можете скачивать файлы