1 сезон

1 сезон

iTunes

1

КиноПоиск HD

Кинопоиск HD

iTunes

13

1 сезон

RePack

30

Ultimate

ВАЖНО

ИГРА 18+

pack

RePack

MK11
pack

Легкие деньги

RePack

jed

RePack

fifa19

RePack

RDR2

RePack

NEED FOR SPEED™ PAYBACK

4 сезон

9 сезон

Бесстыжие 9 сезон

Все сериалы

все сериалы на PB.wtf

RePack

FAR CRY 5
  
Magnet ссылка

НольНольНоль / ZeroZeroZero / Сезон: 1 / Серии: 1-8 из 8 (Янус Мец, Пабло Траперо, Стефано Соллима) [2020, Криминал, драма, триллер, WEB-DLRip] AVO [Ю. Сербин] piratbit.pw

НольНольНоль через торрент piratbit.pw

Размер: 6.13 GB | Добавлен: 1 год 1 мес. назад | Торрент скачан:16 раз
Скачать  

02-03-2020 04:05 НольНольНоль Скачать торрент  

НольНольНоль | ZeroZeroZero
Год выпуска: 2020
Страна: Италия
Жанр: Криминал, драма, триллер
Продолжительность: ~ 01:00:00
Перевод: Авторский | Ю. Сербин
Субтитры: Русские

Режиссер: Янус Мец, Пабло Траперо, Стефано Соллима

rating


В ролях: Андреа Райзборо, Дэйн ДеХаан, Гэбриел Бирн, Эрик Израэль Консуэло, Джузеппе Де Доменико, Маурисио Мендес, Арольд Торрес, Диего Катаньо, Хесус Лозаньо, Армандо Комонфорт Сантьяго

Описание: В Калабрии глава мафиозного клана дон Муно прячется от врагов в подземном бункере и заказывает крупную партию кокаина на 900 млн евро. Дон Муно не знает, что внук Стефано его ненавидит, хочет скормить свиньям и планирует предательство. Между тем в Мехико спецотряд по борьбе с наркотиками проводит операцию, героем которой становится оперативник по кличке Вампиро. Никто не знает, что он работает на местных наркобаронов и должен обеспечить трафик той самой партии для дона Муно.

Качество: WEB-DLRip
Формат: AVI

Видео: XviD, ~ 1600 Кбит/с, 720x304
Аудио Rus: AC3, 48,0 kHz, 6 ch, 384 Кбит/сек
скриншот  скриншот  скриншот  скриншот  

Общее
Полное имя : D:\ZeroZeroZero.S01.WEB-DLRip.Serbin\ZeroZeroZero.S01E01.WEB-DLRip.Serbin.avi
Формат : AVI
Формат/Информация : Audio Video Interleave
Размер файла : 815 Мбайт
Продолжительность : 57 м. 9 с.
Общий поток : 1994 Кбит/сек
Программа кодирования : VirtualDubMod 1.5.10.3 | www.virtualdub-fr.org || (build 2550/release)
Библиотека кодирования : VirtualDubMod build 2550/release

Видео
Идентификатор : 0
Формат : MPEG-4 Visual
Профиль формата : Advanced Simple@L5
Параметр BVOP формата : 1
Параметр QPel формата : Нет
Параметр GMC формата : Без точки перехода
Параметр матрицы формата : Default (MPEG)
Идентификатор кодека : XVID
Идентификатор кодека/Подсказка : XviD
Продолжительность : 57 м. 9 с.
Битрейт : 1600 Кбит/сек
Ширина : 720 пикселей
Высота : 304 пикселя
Соотношение сторон : 2,35:1
Частота кадров : 25,000 кадров/сек
Цветовое пространство : YUV
Субдискретизация насыщенности : 4:2:0
Битовая глубина : 8 бит
Тип развёртки : Прогрессивная
Метод сжатия : С потерями
Бит/(Пиксели*Кадры) : 0.292
Размер потока : 654 Мбайт (80%)
Библиотека кодирования : XviD 67

Аудио
Идентификатор : 1
Формат : AC-3
Формат/Информация : Audio Coding 3
Расширение режима : CM (complete main)
Параметр Endianness формата : Big
Идентификатор кодека : 2000
Продолжительность : 57 м. 9 с.
Вид битрейта : Постоянный
Битрейт : 384 Кбит/сек
Каналы : 6 каналов
Расположение каналов : Front: L C R, Side: L R, LFE
Частота : 48,0 КГц
Частота кадров : 31,250 кадров/сек (1536 spf)
Метод сжатия : С потерями
Размер потока : 157 Мбайт (19%)
Выравнивание : Разделение по промежуткам
Продолжительность промежутка : 40 мс. (1,00 видеокадр)
Время предзагрузки промежутка : 500 мс.

Внимание! Раздача ведётся путём добавления новых серий; при каждом добавлении создаётся новый торрент. Чтобы начать докачку новой серии, пользователям необходимо сделать следующее:
(1) остановить скачивание,
(2) удалить старый торрент у себя из клиента (старые серии удалять не надо),
(3) скачать новый торрент и запустить его у себя в клиенте вместо старого, при этом указать клиенту путь в старую папку куда и должно происходить скачивание новых серий.

Ваш клиент при этом должен произвести хеширование (проверку) старой папки (если не производит сам - помогите ему сделать это), и будет докачивать только те серии которых у вас ещё нет. Старые серии при этом не удаляются, а продолжают раздаваться!

Eсли вы уже удалили старые серии, то предотвратить повторную закачку старых серий можно, отжав галочку в соответсвующих местах при запуске нового торрента. По возможности, желательно не удалять старые серии как можно дольше чтобы релизёр не столько продолжал раздавать старые серии, а смог сконцентрироваться на новых.
piratbit.pw



Скачать НольНольНоль через торрент https://i1.imageban.ru/out/2020/02/17/f5be35d620de8a743a7f957f24b4331b.jpg Скачать фильм НольНольНоль через торрент бесплантно в хорошем качестве Описание: В Калабрии глава мафиозного клана дон Муно прячется от врагов в подземном бункере и заказывает крупную партию кокаина на 900 млн ... 10 10 3
Торрент: Зарегистрирован [2020-03-15 02:26] · скачан: 16 раз
Статус: √ проверено
Размер: 6.13 GB
Как cкачать? Как скачать НольНольНоль через торрент | UTorrent

% Раздел Тема Автор DL S | L
Зарубежные сериалы [ 11.54 GB ] НольНольНоль / ZeroZeroZero / Сезон: 1 / Серии: 1-8 из 8 [2020 WEB-DL 720p] 2xMVO bober100 Скачать
1 | 0
Зарубежные сериалы [ 7.36 GB ] НольНольНоль / ZeroZeroZero / Сезон: 1 / Серии: 1-8 из 8 [2020 WEB-DLRip] MVO [Кравец-Рекордз / Amedia] Twi7ter Скачать
1 | 0
Зарубежные сериалы [ 15.68 GB ] НольНольНоль / ZeroZeroZero / Сезон: 1 / Серии: 1-8 из 8 [2020 WEB-DL 1080p] MVO [LostFilm] bober100 Скачать
1 | 0
Зарубежные сериалы [ 1.87 GB ] НольНольНоль / ZeroZeroZero / Сезон: 1 / Серии: 1- из 8 [2020 WEB-DL 720p] MVO [LostFilm] bober100 Скачать
1 | 0
Зарубежные сериалы [ 7.36 GB ] НольНольНоль / ZeroZeroZero / Сезон: 1 / Серии: 1-8 из 8 [2020 WEBRip] MVO [TVShows] bober100 Скачать
1 | 0
Зарубежные сериалы [ 14.44 GB ] НольНольНоль / ZeroZeroZero / Сезон: 1 / Серии: 1-8 из 8 [2020 WEB-DL 1080p] MVO [TVShows] bober100 Скачать
1 | 0
Зарубежные сериалы [ 9.08 GB ] НольНольНоль / ZeroZeroZero / Сезон: 1 / Серии: 1-8 из 8 [2020 WEB-DL 720p] MVO [TVShows] bober100 Скачать
1 | 0

28-11-2019 20:33  

Отключить всю рекламу на сайте

    Дорогой пользователь! Огромная просьба, поблагодарите релизера, оцените раздачу и оставьте свои комментарий, если Вы скачали НольНольНоль через торрент бесплатно! Внесите свою лепту в развитие PiratBit!
    Комментировать посты могут только пользователи прошедшие не сложную регистрацию
    Показать сообщения:    

    НольНольНоль через торрент
    Скачать бесплатно НольНольНоль
    НольНольНоль скачать торрент
    НольНольНоль смотреть онлайн
    Cкачать фильм НольНольНоль бесплатно
    НольНольНоль скачать торрент в хорошем качестве
    НольНольНоль смотреть онлайн бесплатно в хорошем качестве


    Вы не можете начинать темы
    Вы не можете отвечать на сообщения
    Вы не можете редактировать свои сообщения
    Вы не можете удалять свои сообщения
    Вы не можете голосовать в опросах
    Вы не можете прикреплять файлы к сообщениям
    Вы можете скачивать файлы