1 сезон

1 сезон

iTunes

1

КиноПоиск HD

Кинопоиск HD

iTunes

13

1 сезон

RePack

30

Ultimate

ВАЖНО

ИГРА 18+

pack

RePack

MK11
pack

Легкие деньги

RePack

jed

RePack

fifa19

RePack

RDR2

RePack

NEED FOR SPEED™ PAYBACK

4 сезон

9 сезон

Бесстыжие 9 сезон

Все сериалы

все сериалы на PB.wtf

RePack

FAR CRY 5
  
Magnet ссылка

Максимальный риск / Maximum Risk (Ринго Лам) [1996 г., боевик, триллер, криминал, приключения, BDRip] AVO (Гаврилов) piratbit.pw

Максимальный риск через торрент piratbit.pw

Размер: 1.25 GB | Добавлен: 1 год 1 мес. назад | Торрент скачан:10 раз
Скачать  

01-03-2020 18:53 Максимальный риск Скачать торрент  

Максимальный риск / Maximum Risk
Год выпуска: 1996

Страна: США

Жанр: Боевик, триллер, криминал, приключения

Продолжительность: 01:40:35

Перевод: Авторский (одноголосый) - Гаврилов

Режиссер: Ринго Лам

rating

В ролях: Жан-Клод Ван Дамм, Наташа Хенстридж, Жан-Юг Англад, Зак Гренье, Пол Бен-Виктор, Фрэнк Сенгер, Стефанос Мильцакакис, Франк Ван Кекен, Дэвид Хемблен, Стефан Одран, Дэн Моран, Дональд Бурда, Роб Каман, Хёрб Лоувелл, Дэнис Костанзо, Марк Эстрада, Карло Рота, Джо Пинг, Хью Томпсон, Глория Слэйд, Джеки Ричардсон, Эд Сэйхли, Мартин Пуйоль, Альберт Шульц, Дэн Дюран, Рэймонд Акколас, Кедар Браун, Клэр Целлукки, Джон Бэйлисс, Генри Гомез, Луис Ноберт, Филип Воттон

Описание: Французский полицейский Ален Моро узнаёт о том, что один из погибших в перестрелке бандитов по имени Михаил очень похож на него. И это мягко сказано: на самом деле у них просто одно лицо. Мать Алена неожиданно признаётся в том, что Михаил – это его брат-близнец, оставленный в роддоме по настоянию семьи. Полицейский решает узнать о погибшем брате как можно больше. Он отправляется в Нью-Йорк. И чем ближе он к цели, тем меньше шансов выжить...
Качество: BDRip
Формат: AVI
Видео: XviD, 1616 Кбит/с, 720x304
Аудио: Русский, MP3, 2 ch, 320 Кбит/с
Видео
Идентификатор : 0
Формат : MPEG-4 Visual
Профиль формата : Advanced Simple@L5
Настройки формата : BVOP1 / Custom Matrix
Параметр BVOP формата : 1
Параметр QPel формата : Нет
Параметр GMC формата : Без точки перехода
Параметр матрицы формата : Выборочная
Идентификатор кодека : XVID
Идентификатор кодека/Подсказка : XviD
Продолжительность : 1 ч. 40 м.
Битрейт : 1616 Кбит/сек
Ширина : 720 пикселей
Высота : 304 пикселя
Соотношение сторон : 2,35:1
Частота кадров : 23,976 (24000/1001) кадра/сек
Цветовое пространство : YUV
Субдискретизация насыщенности : 4:2:0
Битовая глубина : 8 бит
Тип развёртки : Прогрессивная
Метод сжатия : С потерями
Бит/(Пиксели*Кадры) : 0.308
Размер потока : 1,14 Гбайт (91%)
Библиотека кодирования : XviD 73

Аудио
Идентификатор : 1
Формат : MPEG Audio
Версия формата : Version 1
Профиль формата : Layer 3
Настройки формата : Joint stereo / MS Stereo
Идентификатор кодека : 55
Идентификатор кодека/Подсказка : MP3
Продолжительность : 50 м. 17 с.
Вид битрейта : Переменный
Битрейт : 320 Кбит/сек
Каналы : 2 канала
Частота : 48,0 КГц
Частота кадров : 41,667 кадра/сек (1152 SPF)
Метод сжатия : С потерями
Размер потока : 115 Мбайт (9%)
Выравнивание : Соединение по промежуткам
Продолжительность промежутка : 83 мс. (2,00 видеокадра)
Время предзагрузки промежутка : 504 мс.
Библиотека кодирования : LAME3.99.5

скриншот   скриншот   скриншот   скриншот  

piratbit.pw



Скачать Максимальный риск через торрент https://pic1.kartinco.top/images/12/4u2l8.jpg Скачать фильм Максимальный риск через торрент бесплантно в хорошем качестве Описание: Французский полицейский Ален Моро узнаёт о том, что один из погибших в перестрелке бандитов по имени Михаил очень похож на него. ... 10 10 2
Торрент: Зарегистрирован [2020-03-01 18:53] · скачан: 10 раз
Статус: √ проверено
Размер: 1.25 GB
Как cкачать? Как скачать Максимальный риск через торрент | UTorrent

% Раздел Тема Автор DL S | L
Фильмы [HD 720p, 1080p] (Хороший звук DUB, MVO) [ 6.71 GB ] Максимальный риск / Maximum Risk [1996 BDRip-HEVC 1080p ] DUB+2xAVO bober100 Скачать
1 | 0
Фильмы [HD 720p, 1080p] (Хороший звук DUB, MVO) [ 13.94 GB ] Максимальный риск / Maximum Risk [1996 BDRip 1080p by msltel] 2 x DUB 3 x MVO 5 x AVO msltel Скачать
1 | 0
Фильмы [HD 720p, 1080p] (Хороший звук DUB, MVO) [ 6.23 GB ] Максимальный риск / Maximum Risk [1996 BDRip 720p by msltel] 2 x DUB 3 x MVO 5 x AVO msltel Скачать
1 | 0

28-11-2019 20:33  

Отключить всю рекламу на сайте

    Дорогой пользователь! Огромная просьба, поблагодарите релизера, оцените раздачу и оставьте свои комментарий, если Вы скачали Максимальный риск через торрент бесплатно! Внесите свою лепту в развитие PiratBit!
    Комментировать посты могут только пользователи прошедшие не сложную регистрацию
    Показать сообщения:    

    Максимальный риск через торрент
    Скачать бесплатно Максимальный риск
    Максимальный риск скачать торрент
    Максимальный риск смотреть онлайн
    Cкачать фильм Максимальный риск бесплатно
    Максимальный риск скачать торрент в хорошем качестве
    Максимальный риск смотреть онлайн бесплатно в хорошем качестве


    Вы не можете начинать темы
    Вы не можете отвечать на сообщения
    Вы не можете редактировать свои сообщения
    Вы не можете удалять свои сообщения
    Вы не можете голосовать в опросах
    Вы не можете прикреплять файлы к сообщениям
    Вы можете скачивать файлы