Marvel's Avengers Deluxe Edition (супер цена) 159р. Внимание количество ограничено!!!

2 сезон

iTunes

iTunes

1

iTunes

iTunes

iTunes

WEBRip

iTunes

30
pack

Новость дня

ВАЖНО

!!Акция!!

Alien_RageХит недели

RePack

Horizon Zero Dawn

ИГРА 18+

pack

RePack

jed

!!Акция!!

Alien_Rage

RePack

fifa19

RePack

Assassins Creed: Odyssey

RePack

NEED FOR SPEED™ PAYBACK

4 сезон

9 сезон

Бесстыжие 9 сезон

Все сериалы

все сериалы на PB.wtf

RePack

FAR CRY 5
  

Красавица и чудовище / Beauty and the Beast (Гари Труздейл, Кирк Уайз) [1991, Мультфильм, мюзикл, фэнтези, мелодрама, семейный, UHD BDRemux 2160p] DUB [Лицензия] piratbit.pw

Красавица и чудовище через торрент piratbit.pw

Размер: 51.78 GB | Добавлен: 6 мес. назад | Торрент скачан:5 раз
Скачать  

01-03-2020 16:21 Красавица и чудовище Скачать торрент  

Красавица и чудовище | Beauty and the Beast
Год выпуска: 1991
Страна: США
Студия: Silver Screen Partners IV, Walt Disney Feature Animation, Walt Disney Pictures
Жанр: Мультфильм, мюзикл, фэнтези, мелодрама, семейный
Продолжительность: 01:24:54
Перевод: Дублированный | Лицензия
Субтитры: Русские (Full), английские

Режиссер: Гари Труздейл, Кирк Уайз

rating

В ролях: Пейдж О`Хара, Робби Бенсон, Ричард Уайт, Джерри Орбах, Дэвид Огден Стайерз, Анджела Лэнсбери, Брэдли Пирс, Рекс Эверхарт, Джесси Корти, Хэл Смит

Описание: "Кто сердцем зол, не должен быть красив!"... Наверное добрая фея думала также, когда привела в соответствие внешность молодого принца и его отталкивающую злобную сущность. Теперь он и с виду - страшный зверь, замок - его мрачная тюрьма, а надежды на обратное преображение - "увядают" с каждым днем!... Но кажется на свете всегда есть человек, который предназначен другому! А иначе почему красивая и храбрая девушка, вынужденная отправиться на поиски своего пропавшего отца, вдруг в результате оказывается перед высокими воротами этого заколдованного замка?... Хватит ли у нее смелости "не верить своим глазам, а слушать только свое сердце"?... Ну и еще обаятельных и веселых слуг своего страшного хозяина, ставших в результате того же заклятия разнообразной домашней утварью?

Качество: UHD BDRemux 2160p
Формат: MKV

Видео: 3840x2160 at 23.976 fps, MPEG-H HEVC HDR Video, 77800 kbps avg
Аудио #01: 48 kHz, AC3, 5.1, 640 Kbps | Дублированный | RUS |
Аудио #02: 48 kHz, TrueHD, 7.1, 8202 Kbps | Оригинал | ENG |
Аудио #03: 48 kHz, AC3, 5.1, 640 Kbps | Оригинал | ENG |
скриншот  скриншот  скриншот  скриншот  скриншот  

General
Unique ID : 48579311523711775203190790574280253076 (0x248C08FA9E24432E2740AC18C8239E94)
Complete name : E:Beauty.and.the.Beast.1991.BDREMUX.2160p.HDR.seleZen.mkv
Format : Matroska
Format version : Version 4
File size : 51.8 GiB
Duration : 1 h 24 min
Overall bit rate mode : Variable
Overall bit rate : 87.3 Mb/s
Movie name : Beauty and the Beast 1991 from селезень
Encoded date : UTC 2020-03-01 11:11:04
Writing application : mkvmerge v40.0.0 ('Old Town Road + Pony') 64-bit
Writing library : libebml v1.3.9 + libmatroska v1.5.2

Video
ID : 1
Format : HEVC
Format/Info : High Efficiency Video Coding
Format profile : Main 10@L5.1@High
HDR format : SMPTE ST 2086, HDR10 compatible
Codec ID : V_MPEGH/ISO/HEVC
Duration : 1 h 24 min
Bit rate : 77.8 Mb/s
Width : 3 840 pixels
Height : 2 160 pixels
Display aspect ratio : 16:9
Frame rate mode : Constant
Frame rate : 23.976 (24000/1001) FPS
Color space : YUV
Chroma subsampling : 4:2:0 (Type 2)
Bit depth : 10 bits
Bits/(Pixel*Frame) : 0.391
Stream size : 46.1 GiB (89%)
Writing library : ATEME Titan File 3.9.0 (4.9.0.0)
Language : English
Default : Yes
Forced : No
Color range : Limited
Color primaries : BT.2020
Transfer characteristics : PQ
Matrix coefficients : BT.2020 non-constant
Mastering display color pri : Display P3
Mastering display luminance : min: 0.0050 cd/m2, max: 4000 cd/m2

Audio #1
ID : 2
Format : AC-3
Format/Info : Audio Coding 3
Commercial name : Dolby Digital
Codec ID : A_AC3
Duration : 1 h 24 min
Bit rate mode : Constant
Bit rate : 640 kb/s
Channel(s) : 6 channels
Channel layout : L R C LFE Ls Rs
Sampling rate : 48.0 kHz
Frame rate : 31.250 FPS (1536 SPF)
Compression mode : Lossy
Stream size : 389 MiB (1%)
Title : Dub
Language : Russian
Service kind : Complete Main
Default : Yes
Forced : Yes

Audio #2
ID : 3
Format : MLP FBA 16-ch
Format/Info : Meridian Lossless Packing FBA with 16-channel presentation
Commercial name : Dolby TrueHD with Dolby Atmos
Codec ID : A_TRUEHD
Duration : 1 h 24 min
Bit rate mode : Variable
Bit rate : 8 209 kb/s
Maximum bit rate : 12.1 Mb/s
Channel(s) : 8 channels
Channel layout : L R C LFE Ls Rs Lb Rb
Sampling rate : 48.0 kHz
Frame rate : 1 200.000 FPS (40 SPF)
Compression mode : Lossless
Stream size : 4.87 GiB (9%)
Title : Original
Language : English
Default : No
Forced : No
Number of dynamic objects : 13
Bed channel count : 1 channel
Bed channel configuration : LFE

Audio #3
ID : 4
Format : AC-3
Format/Info : Audio Coding 3
Commercial name : Dolby Digital
Codec ID : A_AC3
Duration : 1 h 24 min
Bit rate mode : Constant
Bit rate : 640 kb/s
Channel(s) : 6 channels
Channel layout : L R C LFE Ls Rs
Sampling rate : 48.0 kHz
Frame rate : 31.250 FPS (1536 SPF)
Compression mode : Lossy
Stream size : 389 MiB (1%)
Language : English
Service kind : Complete Main
Default : No
Forced : No

Text #1
ID : 5
Format : UTF-8
Codec ID : S_TEXT/UTF8
Codec ID/Info : UTF-8 Plain Text
Duration : 1 h 23 min
Bit rate : 91 b/s
Count of elements : 1099
Stream size : 55.9 KiB (0%)
Title : Full
Language : Russian
Default : No
Forced : No

Text #2
ID : 6
Format : UTF-8
Codec ID : S_TEXT/UTF8
Codec ID/Info : UTF-8 Plain Text
Duration : 1 h 18 min
Bit rate : 60 b/s
Count of elements : 1096
Stream size : 34.7 KiB (0%)
Title : Full
Language : English
Default : No
Forced : No

Menu
00:00:00.000 : en:Глава 01
00:03:19.491 : en:Глава 02
00:08:24.713 : en:Глава 03
00:13:50.830 : en:Глава 04
00:17:34.762 : en:Глава 05
00:20:53.711 : en:Глава 06
00:25:34.116 : en:Глава 07
00:27:04.623 : en:Глава 08
00:34:58.722 : en:Глава 09
00:38:28.723 : en:Глава 10
00:43:50.670 : en:Глава 11
00:49:25.504 : en:Глава 12
00:51:58.949 : en:Глава 13
00:53:59.611 : en:Глава 14
00:57:35.035 : en:Глава 15
01:04:10.346 : en:Глава 16
01:05:56.244 : en:Глава 17
01:08:50.251 : en:Глава 18
01:11:43.174 : en:Глава 19
01:16:16.697 : en:Глава 20
01:20:28.699 : en:Глава 21

piratbit.pw



Скачать Красавица и чудовище через торрент https://c.radikal.ru/c31/2003/e5/9ec0fe20c8d2.jpg Скачать фильм Красавица и чудовище через торрент бесплантно в хорошем качестве Описание: "Кто сердцем зол, не должен быть красив!"... Наверное добрая фея думала также, когда привела в соответствие внешность молодого ... 10 10 2
Торрент: Зарегистрирован [2020-03-01 16:21] · скачан: 5 раз
Статус: √ проверено
Размер: 51.78 GB
Как cкачать? Как скачать Красавица и чудовище через торрент | qTorrent

% Раздел Тема Автор DL S | L
Ultra HD (UHD: 2K, 4K, 8K) — видео сверхвысокой чёткости [ 49.85 GB ] Красавица и чудовище / Beauty and the Beast [2017 Мюзикл UHD BDRemux 2160p] DUB [] bober100 Скачать
1 | 0
Зарубежные Мультфильмы (BDRip 1080p, 720p, Blu-ray, BD-Remux) [ 26.2 GB ] Красавица и чудовище / Beauty and the Beast [1991 мультфильм мюзикл BDRemux 1080p] [Diamond Edition] DUB + MVO + DVO + 3xAVO - KORSAR kisa1980 Скачать
4 | 0
Иностранные мультфильмы [ 1.45 GB ] Красавица и чудовище: Чудесное Рождество / Beauty and the Beast: The Enchanted Christmas [1997 мультфильм BDRip-AVC] DUB MVO koenig Скачать
2 | 0
T Релизы по Парсеру [Игры, Сериалы и Фильмы и другое...] [ 44.35 GB ] Красавица и чудовище 3D / Beauty and the Beast 3D [2017 мюзикл Blu-ray 1080p] [EUR DUB BD3D] [] bober100 Скачать
1 | 0
Фильмы [HD 720p, 1080p] (Хороший звук DUB, MVO) [ 6.37 GB ] Красавица и чудовище / Beauty and the Beast [2017 мюзикл BDRip 720p] DUB + AVO potroks Скачать
3 | 0
Фильмы без перевода [ 26.4 GB ] Красавица и чудовище / Beauty and the Beast [2017 мюзикл BD Remux] [Оригинал-ENG] smaster Скачать
1 | 0
3D Фильмы [ 12.78 GB ] Красавица и чудовище в 3Д / Beauty and the Beast 3D [2017 Мюзикл Мело BDrip 1080p] DUB / OverUnder / Вертикальная стереопара serega768 Скачать
1 | 0

28-11-2019 20:33  

Отключить всю рекламу на сайте

    Дорогой пользователь! Огромная просьба, поблагодарите релизера, оцените раздачу и оставьте свои комментарий, если Вы скачали Красавица и чудовище через торрент бесплатно! Внесите свою лепту в развитие PiratBit!
    Комментировать посты могут только пользователи прошедшие не сложную регистрацию
    Показать сообщения:    

    Красавица и чудовище через торрент
    Скачать бесплатно Красавица и чудовище
    Красавица и чудовище скачать торрент
    Красавица и чудовище смотреть онлайн
    Cкачать фильм Красавица и чудовище бесплатно
    Красавица и чудовище скачать торрент в хорошем качестве
    Красавица и чудовище смотреть онлайн бесплатно в хорошем качестве


    Вы не можете начинать темы
    Вы не можете отвечать на сообщения
    Вы не можете редактировать свои сообщения
    Вы не можете удалять свои сообщения
    Вы не можете голосовать в опросах
    Вы не можете прикреплять файлы к сообщениям
    Вы можете скачивать файлы