Ссылка на приватное зеркало нашего сайта всего за 1$. Внимание количество ограничено!!!

2 сезон

iTunes

1 сезон

1

2 сезон

2 сезон

iTunes

1 сезон

RePack

30

Ultimate

ВАЖНО

ИГРА 18+

pack

RePack

MK11
pack

Забери бонус

RePack

jed

!!Акция!!

Alien_Rage

RePack

fifa19

RePack

Assassins Creed: Odyssey

RePack

NEED FOR SPEED™ PAYBACK

4 сезон

9 сезон

Бесстыжие 9 сезон

Все сериалы

все сериалы на PB.wtf

RePack

FAR CRY 5
  

Счастливое число 5 / 5 è il numero perfetto (Игорь Тувери) [2019 г., драма, триллер, криминал, боевик, BDRip-AVC, DUB iTunes] piratbit.pw

Счастливое число 5 через торрент piratbit.pw

Раздают: 1 [ 0 KB/s ]
Размер: 2.15 GB | Добавлен: 8 мес. назад | Торрент скачан:153 раза
Скачать  

28-02-2020 14:17 Счастливое число 5 Скачать торрент  

Счастливое число 5 / 5 è il numero perfetto

Год выпуска: 2019
Страна: Италия, Бельгия, Франция
Жанр: Драма, триллер, криминал, боевик
Продолжительность: 01:46:38
Перевод: Дублированный | iTunes
Субтитры: Итальянские

Режиссер: Игорь Тувери

rating

В ролях: Тони Сервилло, Валерия Голино, Карло Буччироссо, Яя Форте, Джованни Лудено, Лоренцо Ланселлотти, Винченцо Немолато, Мануэла Ламанна, Эмануеле Носерино, Анджело Курти

Описание: 70-е годы, Неаполь, расцвет мафии. Пеппино Цицерон – наемный убийца каморры, который давно вышел на пенсию. Теперь он живет размеренной жизнью в милой квартирке и гуляет по улочкам города. Пеппино оставил свои дела на сына Нино – неаполитанского красавца, тоже выбравшего криминальный путь. Он стал одним из лучших молодых киллеров и достойно защищает честь отца. Но старику не суждено провести спокойную старость: однажды Нино попадает в засаду и погибает. Пеппино решает отомстить убийцам и снова берет в руки оружие. На помощь ему приходят бывший напарник Тото Мясник и Рита – боевая подруга молодости, с которой героя связывали романтические отношения. Вместе они постараются наказать обидчиков и перевернуть весь мафиозный мир.

Качество: BDRip-AVC
Формат: MKV

Видео: MPEG-4 AVC, 1024x426, 2.40:1, 24.000 fps, 2116 Кбит/с
Аудио#1: Русский (AC3, 6 ch, 384 Кбит/с)
Аудио#2: Итальянский (AC3, 6 ch, 384 Кбит/с)


General
Unique ID : 287363524817691425568128194938982459833 (0xD83033A50AFF29EEE3151A1B208D69B9)
Complete name : C:\Users\Skipper\Desktop\Новая папка (4)\Новая папка\Schastlivoe.chislo.5.2019.x264.BDRip(AVC)-Bestiya-MediaBit.mkv
Format : Matroska
Format version : Version 4 / Version 2
File size : 2.15 GiB
Duration : 1 h 46 min
Overall bit rate : 2 884 kb/s
Movie name : Счастливое число 5 (2019)
Encoded date : UTC 2020-02-28 07:23:33
Writing application : mkvmerge v25.0.0 ('Prog Noir') 64-bit
Writing library : libebml v1.3.6 + libmatroska v1.4.9 / Lavf58.20.100
ENCODING_INFO : MATROSKA,WEBM > MKV

Video
ID : 1
Format : AVC
Format/Info : Advanced Video Codec
Format profile : High 10@L4.1
Format settings : CABAC / 11 Ref Frames
Format settings, CABAC : Yes
Format settings, ReFrames : 11 frames
Codec ID : V_MPEG4/ISO/AVC
Duration : 1 h 46 min
Bit rate : 2 116 kb/s
Width : 1 024 pixels
Height : 426 pixels
Display aspect ratio : 2.40:1
Frame rate mode : Constant
Frame rate : 24.000 FPS
Color space : YUV
Chroma subsampling : 4:2:0
Bit depth : 10 bits
Scan type : Progressive
Bits/(Pixel*Frame) : 0.202
Stream size : 1.57 GiB (73%)
Title : Bestiya-MediaBit
Writing library : x264 core 157 r2958 57baac4
Encoding settings : cabac=1 / ref=11 / deblock=1:-3:-3 / analyse=0x3:0x133 / me=umh / subme=9 / psy=1 / psy_rd=1.00:0.15 / mixed_ref=1 / me_range=48 / chroma_me=1 / trellis=1 / 8x8dct=1 / cqm=0 / deadzone=21,11 / fast_pskip=1 / chroma_qp_offset=-3 / threads=5 / lookahead_threads=1 / sliced_threads=0 / nr=0 / decimate=1 / interlaced=0 / bluray_compat=0 / constrained_intra=0 / bframes=12 / b_pyramid=2 / b_adapt=2 / b_bias=11 / direct=3 / weightb=1 / open_gop=0 / weightp=2 / keyint=240 / keyint_min=24 / scenecut=23 / intra_refresh=0 / rc_lookahead=240 / rc=2pass / mbtree=1 / bitrate=2116 / ratetol=1.0 / qcomp=0.60 / qpmin=0 / qpmax=69 / qpstep=4 / cplxblur=20.0 / qblur=0.5 / ip_ratio=1.40 / aq=1:1.00
Language : Russian
Default : Yes
Forced : No
Color range : Limited
ENCODING_INFO : H264 > X264 VBR-2P 2116kbps HQ

Audio #1
ID : 2
Format : AC-3
Format/Info : Audio Coding 3
Codec ID : A_AC3
Duration : 1 h 46 min
Bit rate mode : Constant
Bit rate : 384 kb/s
Channel(s) : 6 channels
Channel positions : Front: L C R, Side: L R, LFE
Sampling rate : 48.0 kHz
Frame rate : 31.250 FPS (1536 SPF)
Bit depth : 16 bits
Compression mode : Lossy
Stream size : 293 MiB (13%)
Title : iTunes
Language : Russian
Service kind : Complete Main
Default : Yes
Forced : No
ENCODING_INFO : AC3 > AC3 CBR 384kbps

Audio #2
ID : 3
Format : AC-3
Format/Info : Audio Coding 3
Codec ID : A_AC3
Duration : 1 h 46 min
Bit rate mode : Constant
Bit rate : 384 kb/s
Channel(s) : 6 channels
Channel positions : Front: L C R, Side: L R, LFE
Sampling rate : 48.0 kHz
Frame rate : 31.250 FPS (1536 SPF)
Bit depth : 16 bits
Compression mode : Lossy
Stream size : 293 MiB (13%)
Title : Original
Language : Italian
Service kind : Complete Main
Default : No
Forced : No
ENCODING_INFO : DTS-HD MA > AC3 CBR 384kbps

Text
ID : 4
Format : UTF-8
Codec ID : S_TEXT/UTF8
Codec ID/Info : UTF-8 Plain Text
Duration : 1 h 34 min
Bit rate : 42 b/s
Count of elements : 805
Stream size : 29.7 KiB (0%)
Language : Italian
Default : Yes
Forced : No
ENCODING_INFO : SUBRIP > COPY Быстрое

piratbit.pw



Скачать Счастливое число 5 через торрент http://pic1.kartinco.top/images/12/ggemc.jpg Скачать фильм Счастливое число 5 через торрент бесплантно в хорошем качестве Описание: 70-е годы, Неаполь, расцвет мафии. Пеппино Цицерон – наемный убийца каморры, который давно вышел на пенсию. Теперь он живет ... 10 10 4
Торрент: Зарегистрирован [2020-02-28 14:17] · скачан: 153 раз
Статус: √ проверено
Размер: 2.15 GB
Как cкачать? Как скачать Счастливое число 5 через торрент | qTorrent

% Раздел Тема Автор DL S | L
Фильмы 2019-2020 [DVDrip, WEB-DLRip, HDrip] (DUB, MVO) [ 746 MB ] Счастливое число 5 / 5 è il numero perfetto [2019 BDRip-AVC] от wolf1245 & MediaBit Lithuania Скачать
2 | 0
Фильмы 2019-2020 [DVDrip, WEB-DLRip, HDrip] (DUB, MVO) [ 1.46 GB ] Счастливое число 5 / 5 è il numero perfetto [2019 BDRip] bober100 Скачать
3 | 0
Фильмы (WEB-DL 720p, 1080p) [ 3.7 GB ] Счастливое число 5 / 5 è il numero perfetto [2019 WEB-DL 1080p] bober100 Скачать
2 | 0

28-11-2019 20:33  

Отключить всю рекламу на сайте

    Дорогой пользователь! Огромная просьба, поблагодарите релизера, оцените раздачу и оставьте свои комментарий, если Вы скачали Счастливое число 5 через торрент бесплатно! Внесите свою лепту в развитие PiratBit!
    Комментировать посты могут только пользователи прошедшие не сложную регистрацию
    Показать сообщения:    

    Счастливое число 5 через торрент
    Скачать бесплатно Счастливое число 5
    Счастливое число 5 скачать торрент
    Счастливое число 5 смотреть онлайн
    Cкачать фильм Счастливое число 5 бесплатно
    Счастливое число 5 скачать торрент в хорошем качестве
    Счастливое число 5 смотреть онлайн бесплатно в хорошем качестве


    Вы не можете начинать темы
    Вы не можете отвечать на сообщения
    Вы не можете редактировать свои сообщения
    Вы не можете удалять свои сообщения
    Вы не можете голосовать в опросах
    Вы не можете прикреплять файлы к сообщениям
    Вы можете скачивать файлы