Marvel's Avengers Deluxe Edition (супер цена) 159р. Внимание количество ограничено!!!

2 сезон

iTunes

iTunes

1

iTunes

iTunes

iTunes

WEBRip

iTunes

30
pack

Новость дня

ВАЖНО

!!Акция!!

Alien_RageХит недели

RePack

Horizon Zero Dawn

ИГРА 18+

pack

RePack

jed

!!Акция!!

Alien_Rage

RePack

fifa19

RePack

Assassins Creed: Odyssey

RePack

NEED FOR SPEED™ PAYBACK

4 сезон

9 сезон

Бесстыжие 9 сезон

Все сериалы

все сериалы на PB.wtf

RePack

FAR CRY 5
  

ВАЛЛ-И / WALL-E (Эндрю Стэнтон) [2008, Фантастика, мелодрама, приключения, семейный, мультфильм, UHD BDRip 2160p] DUB (rus, ukr) [Лицензия] piratbit.pw

ВАЛЛ-И через торрент piratbit.pw

Раздают: 1 [ 0 KB/s ]
Размер: 9.99 GB | Добавлен: 6 мес. назад | Торрент скачан:25 раз
Скачать  

28-02-2020 01:53 ВАЛЛ-И Скачать торрент  

ВАЛЛ-И | WALL-E
Год выпуска: 2008
Страна: США
Студия: Pixar Animation Studios, Walt Disney Pictures, Industrial Light & Magic (ILM), Kerner Optical
Жанр: Фантастика, мелодрама, приключения, семейный, мультфильм, полнометражный
Продолжительность: 01:38:42
Перевод: Дублированный | Лицензия
Субтитры: Русские (Full), украинские (Full), английские

Режиссер: Эндрю Стэнтон

rating

В ролях: Бен Бёртт, Элисса Найт, Джефф Гарлин, Фред Уиллард, МакИнТелк, Джон Ратценбергер, Кэти Нэджими, Сигурни Уивер, Лори Алан, Боб Берген, Джон Циган, Пит Доктер, Пол Айдинг, Дональд Фуллилов, Тереза Ганзел, Джесс Харнелл, Шерри Линн, Микки Макгоун, Лорейн Ньюмен, Тедди Ньютон, Джефф Пиджон, Жан Рэбсон, Лори Ричардсон, Эндрю Стэнтон, Джим Уорд, Колетт Уайтакер, Ким Копф, Ники МакЭлрой, Гаррет Палмер, Кай Стил Смит

Описание: Робот ВАЛЛ-И из года в год прилежно трудится на опустевшей Земле, очищая нашу планету от гор мусора, которые оставили после себя улетевшие в космос люди. Он и не представляет, что совсем скоро произойдут невероятные события, благодаря которым он встретит друзей, поднимется к звездам и даже сумеет изменить к лучшему своих бывших хозяев, совсем позабывших родную Землю...

Качество: UHD BDRip 2160p
Формат: MKV

Видео: HEVC HDR, 5563 Кбит/с, 3840x1606, 23.976 кадр/с, 10 бит
Аудио #01: 48 kHz, AC3, 5.1, 640 Kbps | Дублированный | RUS |
Аудио #02: 48 kHz, AC3, 5.1, 384 Kbps | Дублированный | UKR |
Аудио #03: 48 kHz, TrueHD, 7.1, 7237 Kbps | Оригинал | ENG |
Аудио #04: 48 kHz, AC3, 5.1, 640 Kbps | Оригинал | ENG |
скриншот  скриншот  скриншот  скриншот  скриншот  

Общее
Уникальный идентификатор : 246528460882728912081680185568746636943 (0xB977A78D08FAD2BFB0081570FF21868F)
Полное имя : G:\WALL-E.2008.2160p.UHD.BDRip.HDR.x265.10-bit.Master5.mkv
Формат : Matroska
Версия формата : Version 4
Размер файла : 9,99 Гбайт
Продолжительность : 1 ч. 38 м.
Режим общего битрейта : Переменный
Общий поток : 14,5 Мбит/сек
Название фильма : WALL-E.2008.2160p.UHD.BDRip.HDR.x265.10-bit.Master5
Дата кодирования : UTC 2020-02-26 20:21:22
Программа кодирования : mkvmerge v7.9.0 ('Birds') 64bit
Библиотека кодирования : libebml v1.3.1 + libmatroska v1.4.2

Видео
Идентификатор : 1
Формат : HEVC
Формат/Информация : High Efficiency Video Coding
Коммерческое название : HDR10
Профиль формата : Main 10@L5.1@High
Идентификатор кодека : V_MPEGH/ISO/HEVC
Продолжительность : 1 ч. 38 м.
Битрейт : 5563 Кбит/сек
Ширина : 3840 пикселей
Высота : 1606 пикселей
Соотношение сторон : 2,40:1
Режим частоты кадров : Постоянный
Частота кадров : 23,976 (24000/1001) кадра/сек
Цветовое пространство : YUV
Субдискретизация насыщенности : 4:2:0 (Type 2)
Битовая глубина : 10 бит
Бит/(Пиксели*Кадры) : 0.038
Размер потока : 3,82 Гбайт (38%)
Заголовок : WALL-E.2008.2160p.UHD.BDRip.HDR.x265.10-bit.Master5
Библиотека кодирования : x265 3.3+4-30eb4de83092:[Windows][GCC 6.3.0][64 bit] 10bit
Настройки программы : cpuid=1111039 / frame-threads=4 / numa-pools=20 / wpp / no-pmode / no-pme / no-psnr / no-ssim / log-level=2 / input-csp=1 / input-res=3840x1606 / interlace=0 / total-frames=141281 / level-idc=51 / high-tier=1 / uhd-bd=0 / ref=4 / no-allow-non-conformance / repeat-headers / annexb / aud / hrd / info / hash=0 / no-temporal-layers / no-open-gop / min-keyint=1 / keyint=24 / gop-lookahead=0 / bframes=4 / b-adapt=2 / b-pyramid / bframe-bias=0 / rc-lookahead=25 / lookahead-slices=4 / scenecut=40 / hist-scenecut=0 / radl=0 / no-splice / no-intra-refresh / ctu=64 / min-cu-size=8 / rect / no-amp / max-tu-size=32 / tu-inter-depth=1 / tu-intra-depth=1 / limit-tu=0 / rdoq-level=2 / dynamic-rd=0.00 / no-ssim-rd / signhide / no-tskip / nr-intra=0 / nr-inter=0 / no-constrained-intra / no-strong-intra-smoothing / max-merge=3 / limit-refs=3 / limit-modes / me=3 / subme=3 / merange=57 / temporal-mvp / no-frame-dup / no-hme / weightp / no-weightb / no-analyze-src-pics / deblock=-3:-3 / no-sao / no-sao-non-deblock / rd=4 / selective-sao=0 / no-early-skip / rskip / no-fast-intra / no-tskip-fast / no-cu-lossless / no-b-intra / no-splitrd-skip / rdpenalty=0 / psy-rd=2.00 / psy-rdoq=1.00 / no-rd-refine / no-lossless / cbqpoffs=0 / crqpoffs=0 / rc=crf / crf=17.0 / qcomp=0.60 / qpstep=4 / stats-write=0 / stats-read=0 / vbv-maxrate=160000 / vbv-bufsize=160000 / vbv-init=0.9 / crf-max=0.0 / crf-min=0.0 / ipratio=1.40 / pbratio=1.30 / aq-mode=1 / aq-strength=1.00 / cutree / zone-count=0 / no-strict-cbr / qg-size=32 / no-rc-grain / qpmax=69 / qpmin=0 / no-const-vbv / sar=1 / overscan=0 / videoformat=5 / range=0 / colorprim=9 / transfer=16 / colormatrix=9 / chromaloc=1 / chromaloc-top=2 / chromaloc-bottom=2 / display-window=0 / master-display=G(13250,34500)B(7500,3000)R(34000,16000)WP(15635,16450)L(10000000,0) / cll=0,0 / min-luma=0 / max-luma=1023 / log2-max-poc-lsb=8 / vui-timing-info / vui-hrd-info / slices=1 / no-opt-qp-pps / no-opt-ref-list-length-pps / no-multi-pass-opt-rps / scenecut-bias=0.05 / hist-threshold=0.01 / no-opt-cu-delta-qp / no-aq-motion / hdr10 / hdr10-opt / no-dhdr10-opt / no-idr-recovery-sei / analysis-reuse-level=0 / analysis-save-reuse-level=0 / analysis-load-reuse-level=0 / scale-factor=0 / refine-intra=0 / refine-inter=0 / refine-mv=1 / refine-ctu-distortion=0 / no-limit-sao / ctu-info=0 / no-lowpass-dct / refine-analysis-type=0 / copy-pic=1 / max-ausize-factor=1.0 / no-dynamic-refine / no-single-sei / no-hevc-aq / no-svt / no-field / qp-adaptation-range=1.00 / no-scenecut-aware-qpconformance-window-offsets / right=0 / bottom=0
Default : Да
Forced : Нет
Цветовой диапазон : Limited
Основные цвета : BT.2020
Характеристики трансфера : PQ
Коэффициенты матрицы : BT.2020 non-constant
MasteringDisplay_ColorPrimaries : Display P3
MasteringDisplay_Luminance : min: 0.0000 cd/m2, max: 1000 cd/m2

Аудио #1
Идентификатор : 2
Формат : AC-3
Формат/Информация : Audio Coding 3
Коммерческое название : Dolby Digital
Идентификатор кодека : A_AC3
Продолжительность : 1 ч. 37 м.
Вид битрейта : Постоянный
Битрейт : 640 Кбит/сек
Каналы : 6 каналов
Channel layout : L R C LFE Ls Rs
Частота : 48,0 КГц
Частота кадров : 31,250 кадров/сек (1536 SPF)
Битовая глубина : 16 бит
Метод сжатия : С потерями
Размер потока : 446 Мбайт (4%)
Заголовок : Dub License
Язык : Russian
ServiceKind/String : Complete Main
Default : Да
Forced : Да

Аудио #2
Идентификатор : 3
Формат : AC-3
Формат/Информация : Audio Coding 3
Коммерческое название : Dolby Digital
Идентификатор кодека : A_AC3
Продолжительность : 1 ч. 37 м.
Вид битрейта : Постоянный
Битрейт : 384 Кбит/сек
Каналы : 6 каналов
Channel layout : L R C LFE Ls Rs
Частота : 48,0 КГц
Частота кадров : 31,250 кадров/сек (1536 SPF)
Битовая глубина : 16 бит
Метод сжатия : С потерями
Размер потока : 267 Мбайт (3%)
Язык : Ukrainian
ServiceKind/String : Complete Main
Default : Нет
Forced : Нет

Аудио #3
Идентификатор : 4
Формат : MLP FBA 16-ch
Формат/Информация : Meridian Lossless Packing FBA with 16-channel presentation
Коммерческое название : Dolby TrueHD with Dolby Atmos
Идентификатор кодека : A_TRUEHD
Продолжительность : 1 ч. 38 м.
Вид битрейта : Переменный
Битрейт : 7237 Кбит/сек
Максимальный битрейт : 8217 Кбит/сек
Каналы : 8 каналов
Channel layout : L R C LFE Ls Rs Lb Rb
Частота : 48,0 КГц
Частота кадров : 1200,000 кадров/сек (40 SPF)
Метод сжатия : Без потерь
Размер потока : 4,99 Гбайт (50%)
Заголовок : Original
Язык : English
Default : Нет
Forced : Нет
Number of dynamic objects : 13
Bed channel count : 1 канал
Bed channel configuration : LFE

Аудио #4
Идентификатор : 5
Формат : AC-3
Формат/Информация : Audio Coding 3
Коммерческое название : Dolby Digital
Идентификатор кодека : A_AC3
Продолжительность : 1 ч. 38 м.
Вид битрейта : Постоянный
Битрейт : 640 Кбит/сек
Каналы : 6 каналов
Channel layout : L R C LFE Ls Rs
Частота : 48,0 КГц
Частота кадров : 31,250 кадров/сек (1536 SPF)
Битовая глубина : 16 бит
Метод сжатия : С потерями
Размер потока : 452 Мбайт (4%)
Язык : English
ServiceKind/String : Complete Main
Default : Нет
Forced : Нет

Текст #1
Идентификатор : 6
Формат : UTF-8
Идентификатор кодека : S_TEXT/UTF8
Идентификатор кодека/Информация : UTF-8 Plain Text
Продолжительность : 1 ч. 25 м.
Битрейт : 33 бит/сек
ElementCount : 482
Размер потока : 21,3 Кбайт (0%)
Заголовок : Full
Язык : Russian
Default : Нет
Forced : Да

Текст #2
Идентификатор : 7
Формат : UTF-8
Идентификатор кодека : S_TEXT/UTF8
Идентификатор кодека/Информация : UTF-8 Plain Text
Продолжительность : 1 ч. 27 м.
Битрейт : 35 бит/сек
ElementCount : 519
Размер потока : 22,7 Кбайт (0%)
Заголовок : Full
Язык : Ukrainian
Default : Нет
Forced : Нет

Текст #3
Идентификатор : 8
Формат : UTF-8
Идентификатор кодека : S_TEXT/UTF8
Идентификатор кодека/Информация : UTF-8 Plain Text
Продолжительность : 1 ч. 35 м.
Битрейт : 29 бит/сек
ElementCount : 794
Размер потока : 20,7 Кбайт (0%)
Заголовок : Full
Язык : English
Default : Нет
Forced : Нет

Текст #4
Идентификатор : 9
Формат : UTF-8
Идентификатор кодека : S_TEXT/UTF8
Идентификатор кодека/Информация : UTF-8 Plain Text
Продолжительность : 1 ч. 35 м.
Битрейт : 43 бит/сек
ElementCount : 1361
Размер потока : 30,5 Кбайт (0%)
Заголовок : SDH
Язык : English
Default : Нет
Forced : Нет

Меню
00:00:00.000 : en:Глава 01
00:03:36.967 : en:Глава 02
00:05:50.350 : en:Глава 03
00:09:19.434 : en:Глава 04
00:12:04.098 : en:Глава 05
00:17:57.118 : en:Глава 06
00:19:34.048 : en:Глава 07
00:21:10.811 : en:Глава 08
00:23:47.468 : en:Глава 09
00:29:18.673 : en:Глава 10
00:31:25.759 : en:Глава 11
00:33:28.423 : en:Глава 12
00:35:20.785 : en:Глава 13
00:38:50.203 : en:Глава 14
00:42:54.196 : en:Глава 15
00:43:32.318 : en:Глава 16
00:51:09.608 : en:Глава 17
00:52:08.250 : en:Глава 18
00:54:48.118 : en:Глава 19
00:56:06.446 : en:Глава 20
00:57:58.683 : en:Глава 21
00:58:41.851 : en:Глава 22
01:02:15.565 : en:Глава 23
01:03:21.714 : en:Глава 24
01:05:50.363 : en:Глава 25
01:11:45.551 : en:Глава 26
01:15:54.883 : en:Глава 27
01:19:23.467 : en:Глава 28
01:20:15.352 : en:Глава 29
01:24:14.758 : en:Глава 30
01:25:46.433 : en:Глава 31
01:30:18.162 : en:Глава 32

piratbit.pw



Скачать ВАЛЛ-И через торрент https://img10.lostpic.net/2020/02/26/2d653e38c1332fd94e3a481c09d1ddfd.jpg Скачать фильм ВАЛЛ-И через торрент бесплантно в хорошем качестве Описание: Робот ВАЛЛ-И из года в год прилежно трудится на опустевшей Земле, очищая нашу планету от гор мусора, которые оставили после себя ... 10 10 3
Торрент: Зарегистрирован [2020-02-28 01:53] · скачан: 25 раз
Статус: √ проверено
Размер: 9.99 GB
Как cкачать? Как скачать ВАЛЛ-И через торрент | qTorrent

% Раздел Тема Автор DL S | L
Ultra HD (UHD: 2K, 4K, 8K) [ 13.73 GB ] ВАЛЛ-И / WALL-E [2008 мультфильм UHD BDRip 2160p ] DUB [] bober100 Скачать
1 | 0
Ultra HD (UHD: 2K, 4K, 8K) [ 34.51 GB ] ВАЛЛ-И / WALL-E [2008 мультфильм UHD BDRemux 2160p] DUB [] bober100 Скачать
3 | 0
Зарубежные Мультфильмы (BDRip 1080p, 720p, Blu-ray, BD-Remux) [ 4.08 GB ] ВАЛЛ·И / WALL·E [2008 мультфильм BDRip 1080p HEVC ()] Мичман37 Скачать
1 | 0
Иностранные мультфильмы [ 1.46 GB ] ВАЛЛ·И / WALL·E [2008 мультфильм HDRip-AVC] от R.G. nICE Films Demonessa Скачать
1 | 1
Иностранные мультфильмы [ 2.64 GB ] ВАЛЛ-И / WALL·E [2008 BDRip] [Локализованный видеоряд] 2x[Dub] + [MVO] + [AVO] killermax2013 Скачать
1 | 0
Мультфильмы (48-60 fps) [ 2.93 GB ] ВАЛЛ·И / WALL-E [2008 мультфильм BDRip-AVC 60fps Dub] от R.G. HD-Films Tiberiumsun69 Скачать
20 | 0
Зарубежные Мультфильмы (BDRip 1080p, 720p, Blu-ray, BD-Remux) [ 1.58 GB ] ВАЛЛ-И / WALL-E [2008г мультфильм BDRip 1080p] + [AVO] killermax2013 Скачать
1 | 0

28-11-2019 20:33  

Отключить всю рекламу на сайте

    Дорогой пользователь! Огромная просьба, поблагодарите релизера, оцените раздачу и оставьте свои комментарий, если Вы скачали ВАЛЛ-И через торрент бесплатно! Внесите свою лепту в развитие PiratBit!
    Комментировать посты могут только пользователи прошедшие не сложную регистрацию
    Показать сообщения:    

    ВАЛЛ-И через торрент
    Скачать бесплатно ВАЛЛ-И
    ВАЛЛ-И скачать торрент
    ВАЛЛ-И смотреть онлайн
    Cкачать фильм ВАЛЛ-И бесплатно
    ВАЛЛ-И скачать торрент в хорошем качестве
    ВАЛЛ-И смотреть онлайн бесплатно в хорошем качестве


    Вы не можете начинать темы
    Вы не можете отвечать на сообщения
    Вы не можете редактировать свои сообщения
    Вы не можете удалять свои сообщения
    Вы не можете голосовать в опросах
    Вы не можете прикреплять файлы к сообщениям
    Вы можете скачивать файлы