Ссылка на приватное зеркало всего за 1$. Внимание количество ограничено!!!

iTunes

iTunes

iTunes

1

iTunes

iTunes

iTunes

iTunes

iTunes

30
pack

Новость дня

ВАЖНО

!!Акция!!

Alien_RageХит недели

RePack

Resident Evil 21

ИГРА 18+

pack

RePack

jed

!!Акция!!

Alien_Rage

RePack

fifa19

RePack

Assassins Creed: Odyssey

RePack

NEED FOR SPEED™ PAYBACK

4 сезон

9 сезон

Бесстыжие 9 сезон

Все сериалы

все сериалы на PB.wtf

RePack

FAR CRY 5
  

Лучше звоните Солу / Better Call Saul / Сезон: 5 / Серии: 1-7 из 10 (Колин Бакси, Адам Бернштейн, Винс Гиллиган) [2020, Драма, комедия, криминал, WEB-DLRip] MVO [LostFilm] piratbit.pw

Лучше звоните Солу через торрент piratbit.pw

Размер: 4.34 GB | Добавлен: 12 мин. назад | Торрент скачан:0 раз
Скачать  

27-02-2020 04:23 Лучше звоните Солу Скачать торрент  

✘ Лучше звоните Солу | Better Call Saul ✘
✦ Год выпуска: 2020
✦ Страна: США
✦ Студия: American Movie Classics (AMC), Crystal Diner Productions, Gran Via
✦ Жанр: Драма, комедия, криминал
✦ Продолжительность: ~ 00:50:00
✦ Перевод: Профессиональный (многоголосый) | LostFilm
✦ Субтитры: Русские, английские

✦ Режиссер: Колин Бакси, Адам Бернштейн, Винс Гиллиган

rating

В ролях: Боб Оденкёрк, Ри Сихорн, Патрик Фабиан, Майкл МакКин, Майкл Мэндо, Джонатан Бэнкс, Ген Н. Чавес, Джил Мюррэйи др.

Описание: История об испытаниях и невзгодах, которые приходится преодолеть Солу Гудману, адвокату по уголовным делам, в тот период, когда он пытается открыть свою собственную адвокатскую контору в Альбукерке, штат Нью-Мексико.

✦ Качество: WEB-DLRip
✦ Формат: XviD / Avi

✦ Видео: ~ 1400 kbps, 720x400, 23,976 fps
✦ Аудио#1 Ru: mp3, 48 KHz, 2 ch, 128 kbps
✦ Аудио#2 En: mp3, 48 KHz, 2 ch, 128 kbps
скриншот  скриншот  скриншот  скриншот  

Общее
Полное имя : D:\Лучше звоните Солу (сезон 5) Better Call Saul (2020) WEB-DLRip - LostFilm\Better.Call.Saul.S05E01.WEB-DLRip.Rus.Eng.DV.LostFilm.avi
Формат : AVI
Формат/Информация : Audio Video Interleave
Размер файла : 691 Мбайт
Продолжительность : 54 м. 21 с.
Общий поток : 1776 Кбит/сек
Название фильма : Better.Call.Saul.S05E01.WEB-DLRip.Rus.Eng.DV.LostFilm / NNM-Club
Программа кодирования : VirtualDubModRus 1.5.10.2 (build 2542/release)
Библиотека кодирования : VirtualDubMod build 2542/release

Видео
Идентификатор : 0
Формат : MPEG-4 Visual
Профиль формата : Advanced Simple@L5
Параметр BVOP формата : 2
Параметр QPel формата : Нет
Параметр GMC формата : Без точки перехода
Параметр матрицы формата : Default (H.263)
Идентификатор кодека : XVID
Идентификатор кодека/Подсказка : XviD
Продолжительность : 54 м. 21 с.
Битрейт : 1506 Кбит/сек
Ширина : 720 пикселей
Высота : 400 пикселей
Соотношение сторон : 16:9
Частота кадров : 23,976 (24000/1001) кадра/сек
Цветовое пространство : YUV
Субдискретизация насыщенности : 4:2:0
Битовая глубина : 8 бит
Тип развёртки : Прогрессивная
Метод сжатия : С потерями
Бит/(Пиксели*Кадры) : 0.218
Размер потока : 586 Мбайт (85%)
Заголовок : Rip from DriverV for NNM-Club
Библиотека кодирования : XviD 64

Аудио #1
Идентификатор : 1
Формат : MPEG Audio
Версия формата : Version 1
Профиль формата : Layer 3
Режим : Joint stereo
Расширение режима : MS Stereo
Идентификатор кодека : 55
Идентификатор кодека/Подсказка : MP3
Продолжительность : 54 м. 21 с.
Вид битрейта : Постоянный
Битрейт : 128 Кбит/сек
Каналы : 2 канала
Частота : 48,0 КГц
Метод сжатия : С потерями
Размер потока : 49,8 Мбайт (7%)
Выравнивание : Соединение по промежуткам
Продолжительность промежутка : 42 мс. (1,00 видеокадр)
Время предзагрузки промежутка : 504 мс.

Аудио #2
Идентификатор : 2
Формат : MPEG Audio
Версия формата : Version 1
Профиль формата : Layer 3
Режим : Joint stereo
Расширение режима : MS Stereo
Идентификатор кодека : 55
Идентификатор кодека/Подсказка : MP3
Продолжительность : 54 м. 21 с.
Вид битрейта : Постоянный
Битрейт : 128 Кбит/сек
Каналы : 2 канала
Частота : 48,0 КГц
Метод сжатия : С потерями
Размер потока : 49,8 Мбайт (7%)
Выравнивание : Соединение по промежуткам
Продолжительность промежутка : 42 мс. (1,00 видеокадр)
Время предзагрузки промежутка : 504 мс.

Когда раздача ведётся путём добавления новых серий, при каждом добавлении создётся новый торрент. Чтобы начать докачку новой серии, пользователям необходимо сделать следующее:
(1) остановить скачивание,
(2) удалить старый торрент у себя из клиента (старые серии удалять не надо),
(3) скачать новый торрент и запустить его у себя в клиенте вместо старого, при этом указать клиенту путь в старую папку, куда и должно происходить скачивание новых серий.
Ваш клиент при этом должен произвести хеширование (проверку) старой папки (если не производит сам - помогите ему сделать это), и будет докачивать только те серии, которых у вас ещё нет. Старые серии при этом не удаляются, а продолжают раздаваться!
Eсли вы уже удалили старые серии, то предотвратить повторную закачку старых серий можно, отжав галочку в соответствующих местах при запуске нового торрента. По возможности, желательно не удалять старые серии как можно дольше, чтобы релизер не столько продолжал раздавать старые серии, а смог сконцентрироваться на новых.

piratbit.pw



Скачать Лучше звоните Солу через торрент https://b.radikal.ru/b07/2002/fa/48bbb6fa6964.jpg Скачать фильм Лучше звоните Солу через торрент бесплантно в хорошем качестве Описание: История об испытаниях и невзгодах, которые приходится преодолеть Солу Гудману, адвокату по уголовным делам, в тот период, когда ... 10 10 2
Торрент: Зарегистрирован [2020-04-03 07:39] · скачан: 0 раз
Статус: √ проверено
Размер: 4.34 GB
Как cкачать? Как скачать Лучше звоните Солу через торрент | qTorrent

% Раздел Тема Автор DL S | L
Зарубежные сериалы [ 24.94 GB ] Лучше звоните Солу / Better Call Saul / Сезон: 5 / Серии: 1-7 из 10 [2020 WEBRip 1080p] MVO [Jaskier] bober100 Скачать
3 | 1
Зарубежные сериалы [ 12.54 GB ] Лучше звоните Солу / Better Call Saul / Сезон: 5 / Серии: 1-7 из 10 [2020 WEBRip 720p] MVO [Jaskier] bober100 Скачать
1 | 1
Зарубежные сериалы [ 4.21 GB ] Лучше звоните Солу / Better Call Saul / Сезон: 5 / Серии: 1-7 из 10 [2020 WEBRip] MVO [Jaskier] bober100 Скачать
2 | 5
Зарубежные сериалы [ 22.86 GB ] Лучше звоните Солу / Better Call Saul / Сезон: 5 / Серии: 1-7 из 10 [2020 WEBRip 1080p] DVO [Gears Media] bober100 Скачать
1 | 1
T Зарубежные сериалы [ 15.25 GB ] Лучше звоните Солу / Better Call Saul / Сезон: 5 / Серии: 1-7 из 10 [2020 WEBRip 1080p] MVO [Octopus] bober100 Скачать
1 | 0
T Зарубежные сериалы [ 10.36 GB ] Лучше звоните Солу / Better Call Saul / Сезон: 5 / Серии: 1-7 из 10 [2020 WEBRip 720p] MVO [Octopus] bober100 Скачать
1 | 0
T Зарубежные сериалы [ 4.79 GB ] Лучше звоните Солу / Better Call Saul / Сезон: 5 / Серии: 1-7 из 10 [2020 WEBRip] MVO [Octopus] bober100 Скачать
3 | 2

28-11-2019 20:33  

Отключить всю рекламу на сайте

    Дорогой пользователь! Огромная просьба, поблагодарите релизера, оцените раздачу и оставьте свои комментарий, если Вы скачали Лучше звоните Солу через торрент бесплатно! Внесите свою лепту в развитие PiratBit!
    Комментировать посты могут только пользователи прошедшие не сложную регистрацию
    Показать сообщения:    

    Лучше звоните Солу через торрент
    Скачать бесплатно Лучше звоните Солу
    Лучше звоните Солу скачать торрент
    Лучше звоните Солу смотреть онлайн
    Cкачать фильм Лучше звоните Солу бесплатно
    Лучше звоните Солу скачать торрент в хорошем качестве
    Лучше звоните Солу смотреть онлайн бесплатно в хорошем качестве


    Вы не можете начинать темы
    Вы не можете отвечать на сообщения
    Вы не можете редактировать свои сообщения
    Вы не можете удалять свои сообщения
    Вы не можете голосовать в опросах
    Вы не можете прикреплять файлы к сообщениям
    Вы можете скачивать файлы