Ссылка на приватное зеркало нашего сайта всего за 1$. Внимание количество ограничено!!!

2 сезон

iTunes

iTunes

1

iTunes

iTunes

iTunes

WEBRip

iTunes

30
pack

Вам бонус

ВАЖНО

!!Акция!!

Alien_RageХит недели

RePack

Horizon Zero Dawn

ИГРА 18+

pack

RePack

jed

!!Акция!!

Alien_Rage

RePack

fifa19

RePack

Assassins Creed: Odyssey

RePack

NEED FOR SPEED™ PAYBACK

4 сезон

9 сезон

Бесстыжие 9 сезон

Все сериалы

все сериалы на PB.wtf

RePack

FAR CRY 5
  

Золотое кольцо (Шота Гамисония) [2020, Комедия, WEB-DL 720p] piratbit.pw

Золотое кольцо через торрент piratbit.pw

Размер: 1.91 GB | Добавлен: 6 мес. назад | Торрент скачан:64 раза
Скачать  

27-02-2020 01:07 Золотое кольцо Скачать торрент  

Золотое кольцо
Год выпуска: 2020
Страна: Россия
Жанр: Комедия
Продолжительность: 01:26:23
Субтитры: отсутствуют

Режиссер: Шота Гамисония

В ролях: Аглая Тарасова, Кирилл Каганович, Вера Строкова, Владимир Яглыч, Ольга Дибцева, Семён Штейнберг, Евгений Стычкин

Описание: Куда поехать в отпуск трем семейным парам? Прокатиться по Западной Европе? Слетать в Тай или на Бали? В крайнем случае сгонять в Прибалтику. Вариантов много, но главные герои выбирают путешествие по России. Для них будущая поездка не просто туризм, а способ решить накопившиеся проблемы в парах.

Качество: WEB-DL 720p
Формат: MKV

Видео: 1280х528 (2,40:1), 25 fps, AVC MPEG-4 (x264), High@L4.1 3000 kbps avg, 0.094 bit/pixel
Аудио: 48.0 kHz, AC3 Dolby Digital, 2/0 (L,R) ch, ~ 192 kbps
скриншот  скриншот  скриншот  скриншот  

Общее
Уникальный идентификатор : 244604833937552270440789439827744185705 (0xB8052D6B8AE8197396B3C03248DCDD69)
Полное имя : C:\Zolotoe.kolco.2020.WEB-DL.(720p).ExKinoRay.mkv
Формат : Matroska
Версия формата : Version 4
Размер файла : 1,91 Гбайт
Продолжительность : 1 ч. 26 м.
Режим общего битрейта : Переменный
Общий поток : 3169 Кбит/сек
Дата кодирования : UTC 2020-02-26 21:21:56
Программа кодирования : mkvmerge v6.9.1 ('Blue Panther') 64bit built on Apr 18 2014 18:23:38
Библиотека кодирования : libebml v1.3.0 + libmatroska v1.4.1

Видео
Идентификатор : 1
Формат : AVC
Формат/Информация : Advanced Video Codec
Профиль формата : High@L3.1
Настройки формата : CABAC / 1 Ref Frames
Параметр CABAC формата : Да
Параметр RefFrames формата : 1 кадр
Параметр GOP формата : M=1, N=50
Идентификатор кодека : V_MPEG4/ISO/AVC
Продолжительность : 1 ч. 26 м.
Вид битрейта : Переменный
Битрейт : 2914 Кбит/сек
Максимальный битрейт : 3000 Кбит/сек
Ширина : 1280 пикселей
Высота : 528 пикселей
Соотношение сторон : 2,40:1
Режим частоты кадров : Постоянный
Частота кадров : 25,000 кадров/сек
Цветовое пространство : YUV
Субдискретизация насыщенности : 4:2:0
Битовая глубина : 8 бит
Тип развёртки : Прогрессивная
Бит/(Пиксели*Кадры) : 0.172
Размер потока : 1,76 Гбайт (92%)
Default : Да
Forced : Нет

Аудио
Идентификатор : 2
Формат : AC-3
Формат/Информация : Audio Coding 3
Коммерческое название : Dolby Digital
Идентификатор кодека : A_AC3
Продолжительность : 1 ч. 26 м.
Вид битрейта : Постоянный
Битрейт : 192 Кбит/сек
Каналы : 2 канала
ChannelLayout : L R
Частота : 48,0 КГц
Частота кадров : 31,250 кадров/сек (1536 SPF)
Метод сжатия : С потерями
Размер потока : 119 Мбайт (6%)
Язык : Russian
ServiceKind/String : Complete Main
Default : Да
Forced : Нет

piratbit.pw



Скачать Золотое кольцо через торрент https://img10.lostpic.net/2020/02/27/69e0192fa9b2f3fbc435a760ec3104d7.th.jpg Скачать фильм Золотое кольцо через торрент бесплантно в хорошем качестве Описание: Куда поехать в отпуск трем семейным парам? Прокатиться по Западной Европе? Слетать в Тай или на Бали? В крайнем случае сгонять в ... 7.8 10 5
Торрент: Зарегистрирован [2020-02-27 01:07] · скачан: 64 раз
Статус: √ проверено
Размер: 1.91 GB
Как cкачать? Как скачать Золотое кольцо через торрент | qTorrent

% Раздел Тема Автор DL S | L
Наши новые фильмы 2018-2019 [ 1.37 GB ] Золотое кольцо [2020 WEB-DLRip] bober100 Скачать
5 | 0
Наши фильмы (HD, WEB-DL 720p, 1080p) [ 2.81 GB ] Золотое кольцо [2020 WEB-DL 1080p] bober100 Скачать
2 | 0
Наши новые фильмы 2018-2019 [ 1.32 GB ] Золотое кольцо [2020 WEB-DLRip-AVC] bober100 Скачать
3 | 0
Ultra HD (UHD: 2K, 4K, 8K) — видео сверхвысокой чёткости [ 67.46 GB ] Kingsman: Золотое кольцо / Kingsman: The Golden Circle [2017 UHD BDRemux 2160p] DUB [] + 4xAVO sheker187 Скачать
1 | 0
Фильмы (Blu-ray, BD-Remux, HDDVD) [ 47.83 GB ] Kingsman: Золотое кольцо / Kingsman: The Golden Circle [2017 BD Remux 1080p] 3xAVO+2xDUB [] bober100 Скачать
1 | 0
Отечественная Поп музыка (lossless) [ 595 MB ] Надежда Кадышева и Золотое кольцо - Дуэты 2016 / FLAC / lossless / Pop Pop-Folk bober100 Скачать
1 | 0
Отечественная Поп музыка (mp3) [ 110 MB ] Надежда Кадышева и ансамбль «Золотое кольцо» - Всё как прежде 2018 / MP3 / 320 kbps / Фолк-музыка Поп-музыка bober100 Скачать
1 | 0

28-11-2019 20:33  

Отключить всю рекламу на сайте

    Дорогой пользователь! Огромная просьба, поблагодарите релизера, оцените раздачу и оставьте свои комментарий, если Вы скачали Золотое кольцо через торрент бесплатно! Внесите свою лепту в развитие PiratBit!
    Комментировать посты могут только пользователи прошедшие не сложную регистрацию
    Показать сообщения:    

    Золотое кольцо через торрент
    Скачать бесплатно Золотое кольцо
    Золотое кольцо скачать торрент
    Золотое кольцо смотреть онлайн
    Cкачать фильм Золотое кольцо бесплатно
    Золотое кольцо скачать торрент в хорошем качестве
    Золотое кольцо смотреть онлайн бесплатно в хорошем качестве


    Вы не можете начинать темы
    Вы не можете отвечать на сообщения
    Вы не можете редактировать свои сообщения
    Вы не можете удалять свои сообщения
    Вы не можете голосовать в опросах
    Вы не можете прикреплять файлы к сообщениям
    Вы можете скачивать файлы