Ссылка на приватное зеркало нашего сайта всего за 1$. Внимание количество ограничено!!!

2 сезон

iTunes

iTunes

1

iTunes

iTunes

iTunes

WEBRip

iTunes

30
pack

Вам бонус

ВАЖНО

!!Акция!!

Alien_RageХит недели

RePack

Horizon Zero Dawn

ИГРА 18+

pack

RePack

jed

!!Акция!!

Alien_Rage

RePack

fifa19

RePack

Assassins Creed: Odyssey

RePack

NEED FOR SPEED™ PAYBACK

4 сезон

9 сезон

Бесстыжие 9 сезон

Все сериалы

все сериалы на PB.wtf

RePack

FAR CRY 5
  

Золотое кольцо (Шота Гамисония) [2020, Комедия, WEB-DL 1080p] piratbit.pw

Золотое кольцо через торрент piratbit.pw

Размер: 2.81 GB | Добавлен: 7 мес. назад | Торрент скачан:378 раз
Скачать  

26-02-2020 21:40 Золотое кольцо Скачать торрент  

Золотое кольцо
Год выпуска: 2020
Страна: Россия
Жанр: Комедия
Продолжительность: 01:26:23
Субтитры: отсутствуют

Режиссер: Шота Гамисония

В ролях: Аглая Тарасова, Кирилл Каганович, Вера Строкова, Владимир Яглыч, Ольга Дибцева, Семён Штейнберг, Евгений Стычкин

Описание: Куда поехать в отпуск трем семейным парам? Прокатиться по Западной Европе? Слетать в Тай или на Бали? В крайнем случае сгонять в Прибалтику. Вариантов много, но главные герои выбирают путешествие по России. Для них будущая поездка не просто туризм, а способ решить накопившиеся проблемы в парах.

Качество: WEB-DL 1080p
Формат: MKV

Видео: MPEG4 AVC Video, H264, 2.40:1, 1920x800, 25 fps, 4500 kbps
Аудио: 48.0 kHz, AC3 Dolby Digital, 2/0 (L,R) ch, ~ 192 kbps
скриншот  скриншот  скриншот  скриншот  скриншот  

General
Unique ID : 227483970544648692593019301702564654265 (0xAB23D1AED57D69009167076164112CB9)
Complete name : D:\Zolotoe.kolco.2020.WEB-DL.(1080p).Getty.mkv
Format : Matroska
Format version : Version 4 / Version 2
File size : 2.81 GiB
Duration : 1 h 26 min
Overall bit rate mode : Variable
Overall bit rate : 4 663 kb/s
Movie name : Zolotoe.kolco.2020.WEB-DL.(1080p).Getty
Encoded date : UTC 2020-02-26 21:08:38
Writing application : mkvmerge v7.8.0 ('River Man') 32bit built on Mar 27 2015 16:18:02
Writing library : libebml v1.3.1 + libmatroska v1.4.2

Video
ID : 1
Format : AVC
Format/Info : Advanced Video Codec
Format profile : High@L4
Format settings : CABAC / 1 Ref Frames
Format settings, CABAC : Yes
Format settings, ReFrames : 1 frame
Format settings, GOP : M=1, N=50
Codec ID : V_MPEG4/ISO/AVC
Duration : 1 h 26 min
Bit rate mode : Variable
Bit rate : 4 500 kb/s
Width : 1 920 pixels
Height : 800 pixels
Display aspect ratio : 2.40:1
Frame rate mode : Constant
Frame rate : 25.000 FPS
Color space : YUV
Chroma subsampling : 4:2:0
Bit depth : 8 bits
Scan type : Progressive
Bits/(Pixel*Frame) : 0.117
Stream size : 2.70 GiB (96%)
Default : Yes
Forced : No

Audio
ID : 2
Format : AC-3
Format/Info : Audio Coding 3
Codec ID : A_AC3
Duration : 1 h 26 min
Bit rate mode : Constant
Bit rate : 192 kb/s
Channel(s) : 2 channels
Channel positions : Front: L R
Sampling rate : 48.0 kHz
Frame rate : 31.250 FPS (1536 SPF)
Bit depth : 16 bits
Compression mode : Lossy
Stream size : 119 MiB (4%)
Service kind : Complete Main
Default : Yes
Forced : No

piratbit.pw



Скачать Золотое кольцо через торрент https://img10.lostpic.net/2020/02/27/f054ea11af3bac6db6a985a152104292.jpg Скачать фильм Золотое кольцо через торрент бесплантно в хорошем качестве Описание: Куда поехать в отпуск трем семейным парам? Прокатиться по Западной Европе? Слетать в Тай или на Бали? В крайнем случае сгонять в ... 9.5 10 18
Info! Золотая раздача, скачанное не засчитывается.
Торрент: Зарегистрирован [2020-02-26 21:40] · скачан: 378 раз
Статус: √ проверено
Размер: 2.81 GB
Как cкачать? Как скачать Золотое кольцо через торрент | qTorrent

% Раздел Тема Автор DL S | L
Наши новые фильмы 2018-2019 [ 1.37 GB ] Золотое кольцо [2020 WEB-DLRip] bober100 Скачать
7 | 0
Наши новые фильмы 2018-2019 [ 1.32 GB ] Золотое кольцо [2020 WEB-DLRip-AVC] bober100 Скачать
5 | 0
Наши фильмы (HD, WEB-DL 720p, 1080p) [ 1.91 GB ] Золотое кольцо [2020 WEB-DL 720p] bober100 Скачать
1 | 0
Ultra HD (UHD: 2K, 4K, 8K) — видео сверхвысокой чёткости [ 67.46 GB ] Kingsman: Золотое кольцо / Kingsman: The Golden Circle [2017 UHD BDRemux 2160p] DUB [] + 4xAVO sheker187 Скачать
2 | 0
Фильмы (Blu-ray, BD-Remux, HDDVD) [ 47.83 GB ] Kingsman: Золотое кольцо / Kingsman: The Golden Circle [2017 BD Remux 1080p] 3xAVO+2xDUB [] bober100 Скачать
1 | 0
Отечественная Поп музыка (lossless) [ 595 MB ] Надежда Кадышева и Золотое кольцо - Дуэты 2016 / FLAC / lossless / Pop Pop-Folk bober100 Скачать
1 | 0
Отечественная Поп музыка (mp3) [ 110 MB ] Надежда Кадышева и ансамбль «Золотое кольцо» - Всё как прежде 2018 / MP3 / 320 kbps / Фолк-музыка Поп-музыка bober100 Скачать
1 | 0

28-11-2019 20:33  

Отключить всю рекламу на сайте

28-02-2020 10:32 Золотое кольцо Скачать торрент  

Аглая Тарасова япвдулpiratbit.pw



    Дорогой пользователь! Огромная просьба, поблагодарите релизера, оцените раздачу и оставьте свои комментарий, если Вы скачали Золотое кольцо через торрент бесплатно! Внесите свою лепту в развитие PiratBit!
    Комментировать посты могут только пользователи прошедшие не сложную регистрацию
    Показать сообщения:    

    Золотое кольцо через торрент
    Скачать бесплатно Золотое кольцо
    Золотое кольцо скачать торрент
    Золотое кольцо смотреть онлайн
    Cкачать фильм Золотое кольцо бесплатно
    Золотое кольцо скачать торрент в хорошем качестве
    Золотое кольцо смотреть онлайн бесплатно в хорошем качестве


    Вы не можете начинать темы
    Вы не можете отвечать на сообщения
    Вы не можете редактировать свои сообщения
    Вы не можете удалять свои сообщения
    Вы не можете голосовать в опросах
    Вы не можете прикреплять файлы к сообщениям
    Вы можете скачивать файлы