Marvel's Avengers Deluxe Edition (супер цена) 159р. Внимание количество ограничено!!!

2 сезон

iTunes

iTunes

1

iTunes

iTunes

iTunes

WEBRip

iTunes

30
pack

Новость дня

ВАЖНО

!!Акция!!

Alien_RageХит недели

RePack

Horizon Zero Dawn

ИГРА 18+

pack

RePack

jed

!!Акция!!

Alien_Rage

RePack

fifa19

RePack

Assassins Creed: Odyssey

RePack

NEED FOR SPEED™ PAYBACK

4 сезон

9 сезон

Бесстыжие 9 сезон

Все сериалы

все сериалы на PB.wtf

RePack

FAR CRY 5
  

Холоп (Клим Шипенко) [2019, Комедия, WEB-DL 720p] [iTunes] piratbit.pw

Холоп через торрент piratbit.pw

Раздают: 3 [ 0 KB/s ]
Размер: 3.2 GB | Добавлен: 6 мес. назад | Торрент скачан:736 раз
Скачать  

26-02-2020 19:39 Холоп Скачать торрент  

Холоп
Год выпуска: 2019
Страна: Россия
Жанр: Комедия
Продолжительность: 01:43:55
Перевод: Не требуется | iTunes
Субтитры: отсутствуют

Режиссер: Клим Шипенко

rating

В ролях: Милош Бикович, Александра Бортич, Александр Самойленко, Иван Охлобыстин, Мария Миронова, Олег Комаров, Ольга Дибцева, Кирилл Нагиев, Сергей Соцердотский, Софья Зайка

Описание: Молодой мажор Гриша заигрался в красивую жизнь и решил, что ему всё дозволено. Он натворил много дел, и теперь ему грозит тюрьма. Чтобы исправить своего сына, отчаявшийся отец-олигарх идёт на крайние меры. Вместе со своим старинным другом-психологом он придумывает уникальный проект: на базе заброшенной деревни воссоздаётся атмосфера России девятнадцатого века. Гриша попадает в подстроенную аварию и якобы переносится в прошлое. На самом деле, над ним проводится изощрённый психологический эксперимент - избалованного мажора превращают в обычного холопа Гришку, живущего в хлеву на территории барской усадьбы. Его окружают актёры, чья цель - изменить его жизнь и личность. За каждым его движением пристально следит команда психолога с помощью множества камер. Грише предстоит заново научиться общаться с людьми, ценить простые удовольствия, работать, а также обрести истинную любовь.

Качество: WEB-DL 720p
Формат: MKV

Видео: AVC, 4016 Kb/s, 960x536
Аудио: AC3, 6 ch, 384 Kb/s
скриншот  скриншот  скриншот  скриншот  

Complete name: Holop.2019.WEB-DL.720p.ELEKTRI4KA.UNIONGANG.mkv
Format: Matroska
Format version: Version 4 / Version 2
File size: 3.20 GiB
Duration: 1 h 43 min
Overall bit rate: 4 402 kb/s
Movie name: ELEKTRI4KA.UNIONGANG
Encoded date: UTC 2020-02-26 19:27:31
Writing application: mkvmerge v8.3.0 ('Over the Horizon') 64bit
Writing library: libebml v1.3.1 + libmatroska v1.4.2

Video
ID: 1
Format: AVC
Format/Info: Advanced Video Codec
Format profile: Main@L3.1
Format settings, CABAC: No
Format settings, Reference frames: 2 frames
Codec ID: V_MPEG4/ISO/AVC
Duration: 1 h 43 min
Bit rate: 4 016 kb/s
Width: 960 pixels
Height: 536 pixels
Display aspect ratio: 2.40:1
Frame rate mode: Constant
Frame rate: 25.000 FPS
Color space: YUV
Chroma subsampling: 4:2:0
Bit depth: 8 bits
Scan type: Progressive
Bits/(Pixel*Frame): 0.312
Stream size: 2.92 GiB (91%)
Language: English
Default: Yes
Forced: No
Color range: Limited
Color primaries: BT.709
Transfer characteristics: BT.709
Matrix coefficients: BT.709

Audio
ID: 2
Format: AC-3
Format/Info: Audio Coding 3
Mode extension: CM (complete main)
Format settings, Endianness: Big
Codec ID: A_AC3
Duration: 1 h 43 min
Bit rate mode: Constant
Bit rate: 384 kb/s
Channel(s): 6 channels
Channel positions: Front: L C R, Side: L R, LFE
Sampling rate: 48.0 kHz
Frame rate: 31.250 FPS (1536 spf)
Bit depth: 16 bits
Compression mode: Lossy
Stream size: 285 MiB (9%)
Title: iTunes
Language: Russian
Default: Yes
Forced: No

Menu
00:00:00.000: en:Глава 1
00:08:23.520: en:Глава 2
00:16:44.880: en:Глава 3
00:25:31.520: en:Глава 4
00:33:46.359: en:Глава 5
00:42:31.439: en:Глава 6
00:51:06.198: en:Глава 7
01:00:10.758: en:Глава 8
01:08:31.158: en:Глава 9
01:16:36.357: en:Глава 10
01:24:44.636: en:Глава 11
01:32:56.276: en:Глава 12

piratbit.pw



Скачать Холоп через торрент https://d.radikal.ru/d12/2002/03/28596000c7f5.png Скачать фильм Холоп через торрент бесплантно в хорошем качестве Описание: Молодой мажор Гриша заигрался в красивую жизнь и решил, что ему всё дозволено. Он натворил много дел, и теперь ему грозит тюрьма. ... 9.8 10 19
Торрент: Зарегистрирован [2020-02-26 19:39] · скачан: 736 раз
Статус: √ проверено
Размер: 3.2 GB
Как cкачать? Как скачать Холоп через торрент | qTorrent

% Раздел Тема Автор DL S | L
Наши фильмы (HD, WEB-DL 720p, 1080p) [ 3.58 GB ] Холоп [2019 WEB-DL 1080p] bober100 Скачать
40 | 0
Наши новые фильмы 2018-2019 [ 1.46 GB ] Холоп [2019 WEB-DLRip-AVC] bober100 Скачать
30 | 0
Наши новые фильмы 2018-2019 [ 710 MB ] Холоп [2019 WEB-DLRip "Русский" ] coc900 Скачать
5 | 0
Наши новые фильмы 2018-2019 [ 1.44 GB ] Холоп [2019 WEB-DLRip] bober100 Скачать
10 | 0

28-11-2019 20:33  

Отключить всю рекламу на сайте

    Дорогой пользователь! Огромная просьба, поблагодарите релизера, оцените раздачу и оставьте свои комментарий, если Вы скачали Холоп через торрент бесплатно! Внесите свою лепту в развитие PiratBit!
    Комментировать посты могут только пользователи прошедшие не сложную регистрацию
    Показать сообщения:    

    Холоп через торрент
    Скачать бесплатно Холоп
    Холоп скачать торрент
    Холоп смотреть онлайн
    Cкачать фильм Холоп бесплатно
    Холоп скачать торрент в хорошем качестве
    Холоп смотреть онлайн бесплатно в хорошем качестве


    Вы не можете начинать темы
    Вы не можете отвечать на сообщения
    Вы не можете редактировать свои сообщения
    Вы не можете удалять свои сообщения
    Вы не можете голосовать в опросах
    Вы не можете прикреплять файлы к сообщениям
    Вы можете скачивать файлы