1 сезон

3 сезон

iTunes

1

iTunes

DUB Netflix

iTunes

13

1 сезон

RePack

30

Deluxe

pack

Легкие деньги

ВАЖНО

ИГРА 18+

pack

RePack

MK11

RePack

jed

RePack

fifa19

RePack

RDR2

RePack

NEED FOR SPEED™ PAYBACK

4 сезон

9 сезон

Бесстыжие 9 сезон

Все сериалы

все сериалы на PB.wtf

RePack

FAR CRY 5

Anonymous, добрый вечер, мы не успеваем до 1 числа собрать деньги на оплату серверов, помогите нам пожалуйста в это трудное время. В качестве благодарности мы отключим Вам всю рекламу на сайте (укажите свой ник в строку Ваше имя)!

×
  
Magnet ссылка

Когда звонит незнакомец / When a Stranger Calls (Саймон Уэст) [2006, ужасы, триллер, BDRip-AVC by msltel] DUB, DVO piratbit.pw

Когда звонит незнакомец через торрент piratbit.pw

Раздают: 1 [ 0 KB/s ]
Размер: 1.86 GB | Добавлен: 1 год 3 мес. назад | Торрент скачан:25 раз
Скачать  

26-02-2020 08:40 Когда звонит незнакомец Скачать торрент  

Название: Когда звонит незнакомец
Оригинальное название: When a Stranger Calls
Год выпуска: 2006
Страна: США
Жанр: ужасы, триллер
Продолжительность: 01:26:57
Перевод: дублированный, профессиональный двухголосый
Режиссер: Саймон Уэст
В ролях: Камилла Белль, Томми Флэнаган, Кэти Кэссиди, Тесса Томпсон, Брайан Джерати, Кларк Грегг, Дерек де Линт, Кейт Дженнингс Грант, Дэвид Денман, Артур Янг, Мадлен Кэрролл, Стив Истин, Джон Бобек, Брэд Суроски, Карина Лог, Розин 'Эйс' Хэйтем, Эшер Холлоуэй, Молли Брайант, Джон Во, Оуэн Смит

О фильме: На некоторые звонки лучше не отвечать. Проблема лишь в том, что, порой, узнаёшь об этом, когда уже поднял трубку… Старшеклассница Джилл остаётся посидеть с детьми четы Мандракис в их доме, пока хозяева ужинают в ресторане. Отправив малышей спать, девушка отчаянно скучает в огромном пустом особняке, и если бы не телефон, по которому можно поболтать с друзьями, ей стало бы совсем тоскливо. Но очередной звонок моментально отбивает у Джилл жажду общения, когда она слышит в трубке незнакомый угрожающий голос: «Давно ли ты проверяла, как там дети?» И это только первая весточка от загадочного маньяка, планы которого туманны, но явно не сулят ничего хорошего. Ясно одно: рано или поздно ему надоест говорить по телефону, и Джилл придётся столкнуться со страшным незнакомцем лицом к лицу... Фильм основан на городской легенде «Няня и незнакомец на втором этаже».



Качество: BDRip-AVC
Формат: MKV
Видео: MPEG-4 AVC, 2042 Kбит/с, 1024x426, 23.976 кадр/с
Аудио 1: русский, AC3, 384 kbps, 6 ch, 48 kHz [дублированный, Невафильм]
Аудио 2: русский, AC3, 192 kbps, 2 ch, 48 kHz [закадровый двухголосый, CTC]
Аудио 3: английский, AC3, 448 kbps, 6 ch, 48 kHz [оригинал]
Субтитры 1: русские (надписи)
Субтитры 2: русские (netflix)
Субтитры 3: русские (megogo)
Субтитры 4: английские (netflix)
Главы/чаптеры
Общее
Уникальный идентификатор : 195439789591673933542061949801370430083 (0x9308559555FBAFD684348D21FC6F2A83)
Полное имя : D:\Video\Когда звонит незнакомец.2006.BDRip-AVC by msltel.mkv
Формат : Matroska
Версия формата : Version 4
Размер файла : 1,86 Гбайт
Продолжительность : 1 ч. 26 м.
Общий поток : 3067 Кбит/сек
Название фильма : Rip by msltel
Дата кодирования : UTC 2020-02-26 02:16:26
Программа кодирования : mkvmerge v8.2.0 ('World of Adventure') 64bit
Библиотека кодирования : libebml v1.3.1 + libmatroska v1.4.2

Видео
Идентификатор : 1
Формат : AVC
Формат/Информация : Advanced Video Codec
Профиль формата : High@L4.1
Настройки формата : CABAC / 14 Ref Frames
Параметр CABAC формата : Да
Параметр RefFrames формата : 14 кадров
Идентификатор кодека : V_MPEG4/ISO/AVC
Продолжительность : 1 ч. 26 м.
Битрейт : 2042 Кбит/сек
Ширина : 1024 пикселя
Высота : 426 пикселей
Соотношение сторон : 2,40:1
Режим частоты кадров : Постоянный
Частота кадров : 23,976 (24000/1001) кадра/сек
Цветовое пространство : YUV
Субдискретизация насыщенности : 4:2:0
Битовая глубина : 8 бит
Тип развёртки : Прогрессивная
Бит/(Пиксели*Кадры) : 0.195
Размер потока : 1,24 Гбайт (67%)
Библиотека кодирования : x264 core 157 r2969 d4099dd
Настройки программы : cabac=1 / ref=14 / deblock=1:-2:-2 / analyse=0x3:0x113 / me=umh / subme=11 / psy=1 / psy_rd=1.00:0.15 / mixed_ref=1 / me_range=32 / chroma_me=1 / trellis=2 / 8x8dct=1 / cqm=0 / deadzone=21,11 / fast_pskip=0 / chroma_qp_offset=-3 / threads=6 / lookahead_threads=1 / sliced_threads=0 / nr=0 / decimate=1 / interlaced=0 / bluray_compat=0 / constrained_intra=0 / bframes=7 / b_pyramid=2 / b_adapt=2 / b_bias=0 / direct=1 / weightb=1 / open_gop=0 / weightp=2 / keyint=230 / keyint_min=23 / scenecut=40 / intra_refresh=0 / rc_lookahead=40 / rc=crf / mbtree=1 / crf=17.0 / qcomp=0.60 / qpmin=0 / qpmax=69 / qpstep=4 / vbv_maxrate=50000 / vbv_bufsize=62500 / crf_max=0.0 / nal_hrd=none / filler=0 / ip_ratio=1.40 / aq=1:1.00
Язык : English
Default : Да
Forced : Нет

Аудио #1
Идентификатор : 2
Формат : AC-3
Формат/Информация : Audio Coding 3
Коммерческое название : Dolby Digital
Идентификатор кодека : A_AC3
Продолжительность : 1 ч. 26 м.
Вид битрейта : Постоянный
Битрейт : 384 Кбит/сек
Каналы : 6 каналов
ChannelLayout : L R C LFE Ls Rs
Частота : 48,0 КГц
Частота кадров : 31,250 кадров/сек (1536 SPF)
Метод сжатия : С потерями
Размер потока : 239 Мбайт (13%)
Заголовок : DUB Невафильм
Язык : Russian
ServiceKind/String : Complete Main
Default : Да
Forced : Нет

Аудио #2
Идентификатор : 3
Формат : AC-3
Формат/Информация : Audio Coding 3
Коммерческое название : Dolby Digital
Идентификатор кодека : A_AC3
Продолжительность : 1 ч. 26 м.
Вид битрейта : Постоянный
Битрейт : 192 Кбит/сек
Каналы : 2 канала
ChannelLayout : L R
Частота : 48,0 КГц
Частота кадров : 31,250 кадров/сек (1536 SPF)
Метод сжатия : С потерями
Размер потока : 119 Мбайт (6%)
Заголовок : DVO CTC
Язык : Russian
ServiceKind/String : Complete Main
Default : Нет
Forced : Нет

Аудио #3
Идентификатор : 4
Формат : AC-3
Формат/Информация : Audio Coding 3
Коммерческое название : Dolby Digital
Идентификатор кодека : A_AC3
Продолжительность : 1 ч. 26 м.
Вид битрейта : Постоянный
Битрейт : 448 Кбит/сек
Каналы : 6 каналов
ChannelLayout : L R C LFE Ls Rs
Частота : 48,0 КГц
Частота кадров : 31,250 кадров/сек (1536 SPF)
Метод сжатия : С потерями
Размер потока : 279 Мбайт (15%)
Заголовок : original
Язык : English
ServiceKind/String : Complete Main
Default : Нет
Forced : Нет

Текст #1
Идентификатор : 5
Формат : UTF-8
Идентификатор кодека : S_TEXT/UTF8
Идентификатор кодека/Информация : UTF-8 Plain Text
Продолжительность : 1 ч. 18 м.
Битрейт : 1 бит/сек
ElementCount : 17
Размер потока : 649 байт (0%)
Заголовок : русские надписи
Язык : Russian
Default : Да
Forced : Да

Текст #2
Идентификатор : 6
Формат : UTF-8
Идентификатор кодека : S_TEXT/UTF8
Идентификатор кодека/Информация : UTF-8 Plain Text
Продолжительность : 1 ч. 26 м.
Битрейт : 40 бит/сек
ElementCount : 563
Размер потока : 25,7 Кбайт (0%)
Заголовок : русские netflix
Язык : Russian
Default : Нет
Forced : Нет

Текст #3
Идентификатор : 7
Формат : UTF-8
Идентификатор кодека : S_TEXT/UTF8
Идентификатор кодека/Информация : UTF-8 Plain Text
Продолжительность : 1 ч. 23 м.
Битрейт : 45 бит/сек
ElementCount : 536
Размер потока : 27,8 Кбайт (0%)
Заголовок : русские megogo
Язык : Russian
Default : Нет
Forced : Нет

Текст #4
Идентификатор : 8
Формат : UTF-8
Идентификатор кодека : S_TEXT/UTF8
Идентификатор кодека/Информация : UTF-8 Plain Text
Продолжительность : 1 ч. 23 м.
Битрейт : 29 бит/сек
ElementCount : 521
Размер потока : 18,1 Кбайт (0%)
Заголовок : английские netflix
Язык : English
Default : Нет
Forced : Нет

Меню
00:00:00.000 : en:Start
00:03:28.039 : en:Grim Loss of Innocence
00:05:33.181 : en:Slow Second, Fast Minutes
00:09:17.428 : en:Lessons of Responsibility
00:12:12.000 : en:Touring the Good Life
00:16:10.473 : en:Making Herself at Home
00:20:03.566 : en:Ominous Silence
00:24:23.493 : en:State of Alarm
00:29:26.630 : en:Sharper Eye on the House
00:33:51.769 : en:A Surprise Visitor
00:36:44.109 : en:Out on a Limb
00:39:57.388 : en:Bad Receptions
00:46:21.032 : en:Ring Around the Rosa
00:49:04.125 : en:Checking the Children
00:50:56.186 : en:"He Can See Me."
00:53:49.458 : en:Not So Perfect Timing
00:56:13.850 : en:Called to the Guest House
00:59:50.707 : en:Running Scared
01:01:17.099 : en:Hard to Be Brave
01:05:19.762 : en:Lights Out
01:08:10.234 : en:Hidden Surprises
01:10:38.895 : en:Trapped in a Glass Box
01:12:05.341 : en:Submerged Struggle
01:14:52.940 : en:A Hairy Reversal
01:16:45.930 : en:Face to Face with Fear
01:18:49.884 : en:Caught Isn't Enough
01:20:59.122 : en:Alone in Fear
01:23:15.079 : en:Nightmare Never Ends
piratbit.pw



Скачать Когда звонит незнакомец через торрент https://d.radikal.ru/d00/2002/f7/cf220ffb8b25.jpg Скачать фильм Когда звонит незнакомец через торрент бесплантно в хорошем качестве О фильме: На некоторые звонки лучше не отвечать. Проблема лишь в том, что, порой, узнаёшь об этом, когда уже поднял трубку… Старшеклассница ... 10 10 1
Торрент: Зарегистрирован [2020-02-26 08:40] · скачан: 25 раз
Статус: √ проверено
Размер: 1.86 GB
Как cкачать? Как скачать Когда звонит незнакомец через торрент | UTorrent

% Раздел Тема Автор DL S | L
Фильмы [HD 720p, 1080p] (Хороший звук DUB, MVO) [ 3.34 GB ] Когда звонит незнакомец / When a Stranger Calls [2006 BDRip 720p by msltel] DUB DVO msltel Скачать
1 | 0

28-11-2019 20:33  

Отключить всю рекламу на сайте

    Дорогой пользователь! Огромная просьба, поблагодарите релизера, оцените раздачу и оставьте свои комментарий, если Вы скачали Когда звонит незнакомец через торрент бесплатно! Внесите свою лепту в развитие PiratBit!
    Комментировать посты могут только пользователи прошедшие не сложную регистрацию
    Показать сообщения:    

    Когда звонит незнакомец через торрент
    Скачать бесплатно Когда звонит незнакомец
    Когда звонит незнакомец скачать торрент
    Когда звонит незнакомец смотреть онлайн
    Cкачать фильм Когда звонит незнакомец бесплатно
    Когда звонит незнакомец скачать торрент в хорошем качестве
    Когда звонит незнакомец смотреть онлайн бесплатно в хорошем качестве


    Вы не можете начинать темы
    Вы не можете отвечать на сообщения
    Вы не можете редактировать свои сообщения
    Вы не можете удалять свои сообщения
    Вы не можете голосовать в опросах
    Вы не можете прикреплять файлы к сообщениям
    Вы можете скачивать файлы