Ссылка на приватное зеркало нашего сайта всего за 1$. Внимание количество ограничено!!!

2 сезон

iTunes

1 сезон

1

2 сезон

2 сезон

iTunes

1 сезон

RePack

30

Новинка

ВАЖНО

ИГРА 18+

pack

RePack

MK11
pack

Забери бонус

RePack

jed

!!Акция!!

Alien_Rage

RePack

fifa19

RePack

Assassins Creed: Odyssey

RePack

NEED FOR SPEED™ PAYBACK

4 сезон

9 сезон

Бесстыжие 9 сезон

Все сериалы

все сериалы на PB.wtf

RePack

FAR CRY 5
  

Темные воды / Dark Waters (Тодд Хейнс) [2019, Триллер, драма, биография, история, BDRip-AVC] MVO [HDrezka Studio] - ExKinoRay piratbit.pw

Темные воды через торрент piratbit.pw

Раздают: 27 [ 321 KB/s ]
Размер: 2.84 GB | Добавлен: 8 мес. назад | Торрент скачан:377 раз
Скачать  

25-02-2020 13:48 Темные воды Скачать торрент  

Название: Темные воды
Оригинальное название: Dark Waters
Год выпуска: 2019
Жанр: Триллер, драма, биография, история
Режиссер: Тодд Хейнс
В ролях: Марк Руффало, Энн Хэтэуэй, Тим Роббинс, Уильям Джексон Харпер, Билл Пуллман, Мэр Уиннингхэм, Виктор Гарбер, Луиза Краузе, Билл Кэмп, Скарлет Хикс, Кевин Краули

Описание: Адвокат Роберт Билотт, работавший корпоративным юристом химического холдинга DuPont, выступает с обвинением в суде против своей бывшей компании, которая десятилетиями цинично травила людей, загрязняя химикатами питьевую воду. Он ведет это дело 19 лет. До сего дня.

rating

Страна: США
Студия: Killer Films, Participant
Продолжительность: 02:07:03
Перевод: Профессиональный (многоголосый, закадровый) | HDrezka Studio

Формат: MKV
Качество: BDRip-AVC
Видео: MPEG-4 AVC, 1024x428 (2.40:1), 23.976 fps, 2750 Kbps, 0.262 bit/pixel
Аудио: 48 kHz, AC3, 5.1, 448 Kbps | MVO | RUS |
Субтитры: Русские (forced)
General
Unique ID : 220673300204473278897429886973147657420 (0xA60421B5B7F25FC4A4ECCD6E482CB4CC)
Complete name : F:\Dark.Waters.2019.BDRip.AVC.ExKinoRay.mkv
Format : Matroska
Format version : Version 2
File size : 2.84 GiB
Duration : 2 h 7 min
Overall bit rate : 3 195 kb/s
Movie name : Dark Waters 2019 from ExKinoRay
Encoded date : UTC 2020-02-25 13:22:14
Writing application : mkvmerge v5.6.0 ('Kenya Kane') built on May 27 2012 16:44:04
Writing library : libebml v1.2.3 + libmatroska v1.3.0
Attachments : front.png

Video
ID : 1
Format : AVC
Format/Info : Advanced Video Codec
Format profile : High@L4.1
Format settings, CABAC : Yes
Format settings, ReFrames : 11 frames
Codec ID : V_MPEG4/ISO/AVC
Duration : 2 h 7 min
Bit rate : 2 750 kb/s
Width : 1 024 pixels
Height : 428 pixels
Display aspect ratio : 2.40:1
Frame rate mode : Constant
Frame rate : 23.976 (23976/1000) FPS
Color space : YUV
Chroma subsampling : 4:2:0
Bit depth : 8 bits
Scan type : Progressive
Bits/(Pixel*Frame) : 0.262
Stream size : 2.38 GiB (84%)
Title : Enigma
Writing library : x264 core 152 r2851 ba24899
Encoding settings : cabac=1 / ref=11 / deblock=1:-2:-2 / analyse=0x3:0x113 / me=umh / subme=10 / psy=1 / psy_rd=0.98:0.08 / mixed_ref=1 / me_range=32 / chroma_me=1 / trellis=2 / 8x8dct=1 / cqm=0 / deadzone=21,11 / fast_pskip=0 / chroma_qp_offset=-3 / threads=12 / lookahead_threads=3 / sliced_threads=0 / nr=0 / decimate=0 / interlaced=0 / bluray_compat=0 / constrained_intra=0 / bframes=14 / b_pyramid=2 / b_adapt=2 / b_bias=0 / direct=3 / weightb=1 / open_gop=0 / weightp=2 / keyint=240 / keyint_min=23 / scenecut=40 / intra_refresh=0 / rc=2pass / mbtree=0 / bitrate=2750 / ratetol=1.0 / qcomp=0.60 / qpmin=0 / qpmax=51 / qpstep=4 / cplxblur=20.0 / qblur=0.5 / ip_ratio=1.40 / pb_ratio=1.30 / aq=3:0.90
Language : English
Default : Yes
Forced : No
Color range : Limited
Color primaries : BT.709
Transfer characteristics : BT.709
Matrix coefficients : BT.709

Audio
ID : 2
Format : AC-3
Format/Info : Audio Coding 3
Mode extension : CM (complete main)
Format settings, Endianness : Big
Codec ID : A_AC3
Duration : 2 h 7 min
Bit rate mode : Constant
Bit rate : 448 kb/s
Channel(s) : 6 channels
Channel positions : Front: L C R, Side: L R, LFE
Sampling rate : 48.0 kHz
Frame rate : 31.250 FPS (1536 spf)
Compression mode : Lossy
Stream size : 407 MiB (14%)
Title : MVO
Language : Russian
Default : Yes
Forced : No

Text
ID : 3
Format : UTF-8
Codec ID : S_TEXT/UTF8
Codec ID/Info : UTF-8 Plain Text
Title : Forced
Language : Russian
Default : Yes
Forced : No

Menu
00:00:00.000 : en:Глава 01
00:10:08.191 : en:Глава 02
00:18:18.431 : en:Глава 03
00:28:20.449 : en:Глава 04
00:36:48.957 : en:Глава 05
00:44:45.892 : en:Глава 06
00:50:17.056 : en:Глава 07
01:04:17.395 : en:Глава 08
01:08:46.080 : en:Глава 09
01:17:23.639 : en:Глава 10
01:23:51.151 : en:Глава 11
01:25:32.002 : en:Глава 12
01:31:40.995 : en:Глава 13
01:36:14.978 : en:Глава 14
01:38:55.763 : en:Глава 15
01:42:26.724 : en:Глава 16
01:45:11.180 : en:Глава 17
01:50:32.084 : en:Глава 18
02:00:16.584 : en:Глава 19
02:02:02.565 : en:Глава 20


Релиз от:

Автор релиза: piratbit.pw



Скачать Темные воды через торрент https://a.radikal.ru/a15/2002/5c/1c80991bcd84.png Скачать фильм Темные воды через торрент бесплантно в хорошем качестве Описание: Адвокат Роберт Билотт, работавший корпоративным юристом химического холдинга DuPont, выступает с обвинением в суде против своей ... 10 10 7
Info! Золотая раздача, скачанное не засчитывается.
Торрент: Зарегистрирован [2020-02-25 13:48] · скачан: 377 раз
Статус: √ проверено
Размер: 2.84 GB
Как cкачать? Как скачать Темные воды через торрент | qTorrent

28-11-2019 20:33  

Отключить всю рекламу на сайте

25-02-2020 17:09 Темные воды Скачать торрент  

19 лет? почему его ещё не убили?piratbit.pw



25-02-2020 21:49 Темные воды Скачать торрент  

БОГАТЫРЬ писал(а):

19 лет? почему его ещё не убили?

тогда все поймут что он говорил правду,и кино сняли когда DuPont разорили борцы за экологиюpiratbit.pw



    Дорогой пользователь! Огромная просьба, поблагодарите релизера, оцените раздачу и оставьте свои комментарий, если Вы скачали Темные воды через торрент бесплатно! Внесите свою лепту в развитие PiratBit!
    Комментировать посты могут только пользователи прошедшие не сложную регистрацию
    Показать сообщения:    

    Темные воды через торрент
    Скачать бесплатно Темные воды
    Темные воды скачать торрент
    Темные воды смотреть онлайн
    Cкачать фильм Темные воды бесплатно
    Темные воды скачать торрент в хорошем качестве
    Темные воды смотреть онлайн бесплатно в хорошем качестве


    Вы не можете начинать темы
    Вы не можете отвечать на сообщения
    Вы не можете редактировать свои сообщения
    Вы не можете удалять свои сообщения
    Вы не можете голосовать в опросах
    Вы не можете прикреплять файлы к сообщениям
    Вы можете скачивать файлы