Ссылка на приватное зеркало всего за 1$. Внимание количество ограничено!!!

iTunes

1+1

iTunes

мы

iTunes

1

WEB-DLRip

Джокер

Пифагор

Ведьмак / The Witcher сериал

iTunes

ПШазам

iTunes

Оно 2

iTunes

30
pack

Новость дня

ВАЖНО

!!Акция!!

Alien_RageХит недели

RePack

Resident Evil 21

ИГРА 18+

pack

RePack

jed

!!Акция!!

Alien_Rage

RePack

fifa19

RePack

Assassins Creed: Odyssey

RePack

NEED FOR SPEED™ PAYBACK

4 сезон

9 сезон

Бесстыжие 9 сезон

Все сериалы

все сериалы на PB.wtf

RePack

FAR CRY 5
  

Чужестранка / Outlander / Сезон: 5 / Серии: 1-6 из 12 (Метин Хусейн, Анна Ферстер, Брайан Келли) [2020, фэнтези, драма, мелодрама, WEB-DL 1080p] MVO [NewStudio] piratbit.pw

Чужестранка через торрент piratbit.pw

Размер: 23.52 GB | Добавлен: 3 д. назад | Торрент скачан:2 раза
Скачать  

18-02-2020 08:37 Чужестранка Скачать торрент  

Чужестранка | Outlander
Год выпуска: 2020
Страна: США, Великобритания
Жанр: фэнтези, драма, мелодрама
Продолжительность: ~ 00:55:00 серия
Перевод: Профессиональный многоголосый | NewStudio
Субтитры: отсутствуют

Режиссер: Метин Хусейн, Анна Ферстер, Брайан Келли

rating


В ролях: Катрина Балф (Claire Randall), Сэм Хьюэн (Jamie Fraser), Данкан Лакруа (Murtagh Fraser), Тобайас Мензис (Jack Randall), Грант О’Рурк (Rupert MacKenzie), Грэм МакТавиш (Dougal MacKenzie), Стивен Уолтерс (Angus Mhor), Роман Беро (Fergus), Эндрю Гауэр (Prince Charles Edward Stuart), Кит Флеминг (Lesley), James Allenby-Kirk (Hayes), Лотта Вербек (Geillis Duncan)

Описание: Сериал рассказывает историю Клэр Рэндалл, военной медсестры из 40-х годов XX века, которая во время прогулки у легендарных шотландских каменных кругов загадочно перемещается во времени в 1743-й год. Попадая в XVIII век, Клэр оказывается в неизвестном мире, где ее жизни угрожает опасность. Девушка должна найти возможность выжить и вернуться обратно в будущее, где остался ее муж Фрэнк Рэндалл. Чтобы спастись в неизвестном и незнакомом героине прошлом, она вынуждена выйти замуж за Джейми Фрейзера, галантного шотландского воина со сложной судьбой и обезоруживающим чувством юмора.

Качество: WEB-DL 1080p
Формат: MKV

Видео: 1920x1080 at 23.976 fps, MPEG-4 AVC, ~9000 kbps avg
Аудио#1: Russian: 48 kHz, AC3, 3/2 (L,C,R,l,r) + LFE ch, ~448 kbps avg
Аудио#2: English: 48 kHz, E-AC3, 3/2 (L,C,R,l,r) + LFE ch, ~640 kbps avg
скриншот  скриншот  скриншот  скриншот  

Общее
Уникальный идентификатор : 170702543065620498587887371518408137970 (0x806C1D2A57238CF89224557044101CF2)
Полное имя : C:\Outlander.s05e01.WEBDL.1080p.NewStudio.mkv
Формат : Matroska
Версия формата : Version 4 / Version 2
Размер файла : 4,44 Гбайт
Продолжительность : 1 ч. 2 м.
Режим общего битрейта : Постоянный
Общий поток : 10,1 Мбит/сек
Дата кодирования : UTC 2020-02-18 07:41:56
Программа кодирования : mkvmerge v18.0.0 ('Apricity') 64-bit
Библиотека кодирования : libebml v1.3.5 + libmatroska v1.4.8

Видео
Идентификатор : 1
Формат : AVC
Формат/Информация : Advanced Video Codec
Профиль формата : High@L4
Настройки формата : CABAC / 4 Ref Frames
Параметр CABAC формата : Да
Параметр RefFrames формата : 4 кадра
Идентификатор кодека : V_MPEG4/ISO/AVC
Продолжительность : 1 ч. 2 м.
Вид битрейта : Постоянный
Битрейт : 9058 Кбит/сек
Номинальный битрейт : 10000 Кбит/сек
Ширина : 1920 пикселей
Высота : 1080 пикселей
Соотношение сторон : 16:9
Режим частоты кадров : Постоянный
Частота кадров : 23,976 (24000/1001) кадра/сек
Цветовое пространство : YUV
Субдискретизация насыщенности : 4:2:0
Битовая глубина : 8 бит
Тип развёртки : Прогрессивная
Бит/(Пиксели*Кадры) : 0.182
Размер потока : 3,96 Гбайт (89%)
Язык : English
Default : Да
Forced : Нет
Цветовой диапазон : Limited
Основные цвета : BT.709
Характеристики трансфера : BT.709
Коэффициенты матрицы : BT.709

Аудио #1
Идентификатор : 2
Формат : AC-3
Формат/Информация : Audio Coding 3
Идентификатор кодека : A_AC3
Продолжительность : 1 ч. 2 м.
Вид битрейта : Постоянный
Битрейт : 448 Кбит/сек
Каналы : 6 каналов
Расположение каналов : Front: L C R, Side: L R, LFE
Частота : 48,0 КГц
Частота кадров : 31,250 кадров/сек (1536 SPF)
Битовая глубина : 16 бит
Метод сжатия : С потерями
Размер потока : 201 Мбайт (4%)
Заголовок : NewStudio.TV
Язык : Russian
ServiceKind/String : Complete Main
Default : Да
Forced : Нет

Аудио #2
Идентификатор : 3
Формат : E-AC-3
Формат/Информация : Enhanced Audio Coding 3
Идентификатор кодека : A_EAC3
Продолжительность : 1 ч. 2 м.
Вид битрейта : Постоянный
Битрейт : 640 Кбит/сек
Каналы : 6 каналов
Расположение каналов : Front: L C R, Side: L R, LFE
Частота : 48,0 КГц
Частота кадров : 187,500 кадров/сек (256 SPF)
Метод сжатия : С потерями
Задержка видео : 4 мс.
Размер потока : 287 Мбайт (6%)
Заголовок : English
Язык : English
ServiceKind/String : Complete Main
Default : Нет
Forced : Нет

Когда раздача ведётся путём добавления новых серий, при каждом добавлении создётся новый торрент. Чтобы начать докачку новой серии, пользователям необходимо сделать следующее:
(1) остановить скачивание,
(2) удалить старый торрент у себя из клиента (старые серии удалять не надо),
(3) скачать новый торрент и запустить его у себя в клиенте вместо старого, при этом указать клиенту путь в старую папку, куда и должно происходить скачивание новых серий.
Ваш клиент при этом должен произвести хеширование (проверку) старой папки (если не производит сам - помогите ему сделать это), и будет докачивать только те серии, которых у вас ещё нет. Старые серии при этом не удаляются, а продолжают раздаваться!
Eсли вы уже удалили старые серии, то предотвратить повторную закачку старых серий можно, отжав галочку в соответсвующих местах при запуске нового торрента. По возможности, желательно не удалять старые серии как можно дольше, чтобы релизер не столько продолжал раздавать старые серии, а смог сконцентрироваться на новых.
piratbit.pw



Скачать Чужестранка через торрент http://pic1.kartinco.top/images/12/mwtt1.jpg Скачать фильм Чужестранка через торрент бесплантно в хорошем качестве Описание: Сериал рассказывает историю Клэр Рэндалл, военной медсестры из 40-х годов XX века, которая во время прогулки у легендарных ... 10 10 4
Торрент: Зарегистрирован [2020-03-26 01:08] · скачан: 2 раз
Статус: √ проверено
Размер: 23.52 GB
Как cкачать? Как скачать Чужестранка через торрент | qTorrent

% Раздел Тема Автор DL S | L
Зарубежные сериалы [ 22.99 GB ] Чужестранка / Outlander / Сезон: 5 / Серии: 1-6 из 12 [2020 WEB-DL 1080p] MVO [Jaskier] bober100 Скачать
3 | 1
Зарубежные сериалы [ 11.02 GB ] Чужестранка / Outlander / Сезон: 5 / Серии: 1-6 из 12 [2020 WEB-DL 720p] MVO [Jaskier] bober100 Скачать
1 | 2
Зарубежные сериалы [ 4.07 GB ] Чужестранка / Outlander / Сезон: 5 / Серии: 1-6 из 12 [2020 WEB-DLRip] MVO [Jaskier] bober100 Скачать
1 | 0
Зарубежные сериалы [ 12.02 GB ] Чужестранка / Outlander / Сезон: 5 / Серии: 1-6 из 12 [2020 WEB-DL 720p] MVO [NewStudio] bober100 Скачать
1 | 2

28-11-2019 20:33  

Отключить всю рекламу на сайте

    Дорогой пользователь! Огромная просьба, поблагодарите релизера, оцените раздачу и оставьте свои комментарий, если Вы скачали Чужестранка через торрент бесплатно! Внесите свою лепту в развитие PiratBit!
    Комментировать посты могут только пользователи прошедшие не сложную регистрацию
    Показать сообщения:    

    Чужестранка через торрент
    Скачать бесплатно Чужестранка
    Чужестранка скачать торрент
    Чужестранка смотреть онлайн
    Cкачать фильм Чужестранка бесплатно
    Чужестранка скачать торрент в хорошем качестве
    Чужестранка смотреть онлайн бесплатно в хорошем качестве


    Вы не можете начинать темы
    Вы не можете отвечать на сообщения
    Вы не можете редактировать свои сообщения
    Вы не можете удалять свои сообщения
    Вы не можете голосовать в опросах
    Вы не можете прикреплять файлы к сообщениям
    Вы можете скачивать файлы