Marvel's Avengers Deluxe Edition (супер цена) 159р. Внимание количество ограничено!!!

2 сезон

iTunes

iTunes

1

iTunes

iTunes

iTunes

WEBRip

iTunes

30
pack

Новость дня

ВАЖНО

!!Акция!!

Alien_RageХит недели

RePack

Horizon Zero Dawn

ИГРА 18+

pack

RePack

jed

!!Акция!!

Alien_Rage

RePack

fifa19

RePack

Assassins Creed: Odyssey

RePack

NEED FOR SPEED™ PAYBACK

4 сезон

9 сезон

Бесстыжие 9 сезон

Все сериалы

все сериалы на PB.wtf

RePack

FAR CRY 5
  

Амбивалентность (Антон Бильжо) [2018, Драма, триллер, WEB-DL 1080p] [iTunes] piratbit.pw

Амбивалентность через торрент piratbit.pw

Размер: 4.49 GB | Добавлен: 7 мес. назад | Торрент скачан:90 раз
Скачать  

18-02-2020 05:15 Амбивалентность Скачать торрент  

Амбивалентность
Год выпуска: 2018
Страна: Россия
Жанр: Драма, триллер
Продолжительность: 01:57:10
Перевод: Не требуется | iTunes
Субтитры: отсутствуют

Режиссер: Антон Бильжо

rating

В ролях: Данил Стеклов, Егор Морозов, Ольга Цирсен, Валентина Куваева, Валентин Самохин, Иван Верховых, Галина Стаханова, Ксения Базанова, Дмитрий Журавлев, Гарик Айвазов

Описание: Два друга, два молодых психиатра, очень по-разному воспринимают жизнь. Один хочет поступать правильно. Второй - ставить эксперименты. Один - прилежный ученик. Второй - нарушитель спокойствия. Но выдержит ли их дружба испытание страстью к одной женщине? Это интригующая история о необычном любовном треугольнике и о том, что безумие ближе, чем кажется.

Качество: WEB-DL 1080p
Формат: MKV

Видео: MPEG-4 AVC, 5120 Kbit/s, 1920x1080, 25.00 fps
Аудио: 48 kHz, AC3 Dolby Digital, 3/2 (L,C,R,l,r) + LFE ch, ~384 kbps
скриншот  скриншот  скриншот  скриншот  

Complete name : Ambivalentnost.2018.WEB-DL.1080p.ELEKTRI4KA.UNIONGANG.mkv
Format : Matroska
Format version : Version 4 / Version 2
File size : 4.49 GiB
Duration : 1 h 57 min
Overall bit rate : 5 481 kb/s
Movie name : ELEKTRI4KA.UNIONGANG
Encoded date : UTC 2020-02-17 22:16:29
Writing application : mkvmerge v8.3.0 ('Over the Horizon') 64bit
Writing library : libebml v1.3.1 + libmatroska v1.4.2

Video
ID : 1
Format : AVC
Format/Info : Advanced Video Codec
Format profile : High@L4
Format settings, CABAC : Yes
Format settings, Reference frames : 4 frames
Codec ID : V_MPEG4/ISO/AVC
Duration : 1 h 57 min
Bit rate : 5 120 kb/s
Width : 1 920 pixels
Height : 1 080 pixels
Display aspect ratio : 16:9
Frame rate mode : Constant
Frame rate : 25.000 FPS
Color space : YUV
Chroma subsampling : 4:2:0
Bit depth : 8 bits
Scan type : Progressive
Bits/(Pixel*Frame) : 0.099
Stream size : 4.17 GiB (93%)
Writing library : x264 core 148
Encoding settings : cabac=1 / ref=3 / deblock=1:0:0 / analyse=0x3:0x113 / me=hex / subme=7 / psy=1 / psy_rd=1.00:0.00 / mixed_ref=1 / me_range=16 / chroma_me=1 / trellis=1 / 8x8dct=1 / cqm=0 / deadzone=21,11 / fast_pskip=1 / chroma_qp_offset=-2 / threads=34 / lookahead_threads=5 / sliced_threads=0 / nr=0 / decimate=1 / interlaced=0 / bluray_compat=0 / constrained_intra=0 / bframes=6 / b_pyramid=2 / b_adapt=1 / b_bias=0 / direct=1 / weightb=1 / open_gop=0 / weightp=2 / keyint=50 / keyint_min=26 / scenecut=0 / intra_refresh=0 / rc_lookahead=40 / rc=2pass / mbtree=1 / bitrate=5120 / ratetol=1.0 / qcomp=0.60 / qpmin=0 / qpmax=69 / qpstep=4 / cplxblur=20.0 / qblur=0.5 / vbv_maxrate=7680 / vbv_bufsize=20480 / nal_hrd=none / filler=0 / ip_ratio=1.40 / aq=1:1.00
Language : Russian
Default : Yes
Forced : No

Audio
ID : 2
Format : AC-3
Format/Info : Audio Coding 3
Mode extension : CM (complete main)
Format settings, Endianness : Big
Codec ID : A_AC3
Duration : 1 h 57 min
Bit rate mode : Constant
Bit rate : 384 kb/s
Channel(s) : 6 channels
Channel positions : Front: L C R, Side: L R, LFE
Sampling rate : 48.0 kHz
Frame rate : 31.250 FPS (1536 spf)
Bit depth : 16 bits
Compression mode : Lossy
Stream size : 322 MiB (7%)
Title : iTunes
Language : Russian
Default : Yes
Forced : No

piratbit.pw



Скачать Амбивалентность через торрент https://i2.imageban.ru/out/2019/05/07/e1d34f07b88b00c387397cef2f6cbcfa.jpg Скачать фильм Амбивалентность через торрент бесплантно в хорошем качестве Описание: Два друга, два молодых психиатра, очень по-разному воспринимают жизнь. Один хочет поступать правильно. Второй - ставить ... 8.5 10 6
Торрент: Зарегистрирован [2020-02-18 05:15] · скачан: 90 раз
Статус: √ проверено
Размер: 4.49 GB
Как cкачать? Как скачать Амбивалентность через торрент | qTorrent

% Раздел Тема Автор DL S | L
Наши новые фильмы 2018-2019 [ 2.18 GB ] Амбивалентность [2018 WEB-DLRip] bober100 Скачать
1 | 0
Наши новые фильмы 2018-2019 [ 1.46 GB ] Амбивалентность [2018 WEB-DLRip] bober100 Скачать
1 | 0

28-11-2019 20:33  

Отключить всю рекламу на сайте

    Дорогой пользователь! Огромная просьба, поблагодарите релизера, оцените раздачу и оставьте свои комментарий, если Вы скачали Амбивалентность через торрент бесплатно! Внесите свою лепту в развитие PiratBit!
    Комментировать посты могут только пользователи прошедшие не сложную регистрацию
    Показать сообщения:    

    Амбивалентность через торрент
    Скачать бесплатно Амбивалентность
    Амбивалентность скачать торрент
    Амбивалентность смотреть онлайн
    Cкачать фильм Амбивалентность бесплатно
    Амбивалентность скачать торрент в хорошем качестве
    Амбивалентность смотреть онлайн бесплатно в хорошем качестве


    Вы не можете начинать темы
    Вы не можете отвечать на сообщения
    Вы не можете редактировать свои сообщения
    Вы не можете удалять свои сообщения
    Вы не можете голосовать в опросах
    Вы не можете прикреплять файлы к сообщениям
    Вы можете скачивать файлы