Marvel's Avengers Deluxe Edition (супер цена) 159р. Внимание количество ограничено!!!

2 сезон

iTunes

iTunes

1

iTunes

iTunes

iTunes

WEBRip

iTunes

30
pack

Новость дня

ВАЖНО

!!Акция!!

Alien_RageХит недели

RePack

Horizon Zero Dawn

ИГРА 18+

pack

RePack

jed

!!Акция!!

Alien_Rage

RePack

fifa19

RePack

Assassins Creed: Odyssey

RePack

NEED FOR SPEED™ PAYBACK

4 сезон

9 сезон

Бесстыжие 9 сезон

Все сериалы

все сериалы на PB.wtf

RePack

FAR CRY 5
  

Доминика (Олег Агейчев) [2018, Фэнтези, комедия, WEB-DL 1080p] [iTunes] piratbit.pw

Доминика через торрент piratbit.pw

Размер: 3.18 GB | Добавлен: 7 мес. назад | Торрент скачан:89 раз
Скачать  

18-02-2020 05:07 Доминика Скачать торрент  

Доминика
Год выпуска: 2018
Страна: Россия
Жанр: Фэнтези, комедия
Продолжительность: 01:22:55
Перевод: Не требуется | iTunes
Субтитры: отсутствуют

Режиссер: Олег Агейчев

rating

В ролях: Андрей Чадов, Светлана Устинова, Игорь Жижикин, Александр Шаляпин, Яна Гурьянова, Елена Яковлева, Екатерина Васильева, Амет Магомедов, София Бармина, Лиза Измайлова

Описание: Главный герой фильма Константин - успешный молодой архитектор. Он аккуратно выстраивает карьеру и находится в удобных отношениях с девушкой Яной. Но его спокойная и благополучная жизнь резко меняется, когда однажды на пороге своей квартиры он находит трехмесячную девочку - Доминику. Вскоре у девочки обнаруживается феноменальная способность - взрослеть на несколько лет после каждой вспышки гнева героя. Константин понимает, что Доминика послана ему не напрасно.

Качество: WEB-DL 1080p
Формат: MKV

Видео: MPEG-4 AVC, 5120 Kbit/s, 1920x804, 24.000 fps
Аудио: 48 kHz, AC3 Dolby Digital, 3/2 (L,C,R,l,r) + LFE ch, ~384 kbps
скриншот  скриншот  скриншот  скриншот  

Complete name : Dominika.2018.WEB-DL.1080p.ELEKTRI4KA.UNIONGANG.mkv
Format : Matroska
Format version : Version 4 / Version 2
File size : 3.18 GiB
Duration : 1 h 22 min
Overall bit rate : 5 487 kb/s
Movie name : ELEKTRI4KA.UNIONGANG
Encoded date : UTC 2020-02-17 20:52:02
Writing application : mkvmerge v8.3.0 ('Over the Horizon') 64bit
Writing library : libebml v1.3.1 + libmatroska v1.4.2

Video
ID : 1
Format : AVC
Format/Info : Advanced Video Codec
Format profile : High@L4
Format settings, CABAC : Yes
Format settings, Reference frames : 4 frames
Codec ID : V_MPEG4/ISO/AVC
Duration : 1 h 22 min
Bit rate : 5 120 kb/s
Width : 1 920 pixels
Height : 804 pixels
Display aspect ratio : 2.40:1
Frame rate mode : Constant
Frame rate : 24.000 FPS
Color space : YUV
Chroma subsampling : 4:2:0
Bit depth : 8 bits
Scan type : Progressive
Bits/(Pixel*Frame) : 0.138
Stream size : 2.95 GiB (93%)
Writing library : x264 core 148
Encoding settings : cabac=1 / ref=3 / deblock=1:0:0 / analyse=0x3:0x113 / me=hex / subme=7 / psy=1 / psy_rd=1.00:0.00 / mixed_ref=1 / me_range=16 / chroma_me=1 / trellis=1 / 8x8dct=1 / cqm=0 / deadzone=21,11 / fast_pskip=1 / chroma_qp_offset=-2 / threads=25 / lookahead_threads=4 / sliced_threads=0 / nr=0 / decimate=1 / interlaced=0 / bluray_compat=0 / constrained_intra=0 / bframes=6 / b_pyramid=2 / b_adapt=1 / b_bias=0 / direct=1 / weightb=1 / open_gop=0 / weightp=2 / keyint=48 / keyint_min=25 / scenecut=0 / intra_refresh=0 / rc_lookahead=40 / rc=2pass / mbtree=1 / bitrate=5120 / ratetol=1.0 / qcomp=0.60 / qpmin=0 / qpmax=69 / qpstep=4 / cplxblur=20.0 / qblur=0.5 / vbv_maxrate=7680 / vbv_bufsize=20480 / nal_hrd=none / filler=0 / ip_ratio=1.40 / aq=1:1.00
Language : Russian
Default : Yes
Forced : No

Audio
ID : 2
Format : AC-3
Format/Info : Audio Coding 3
Mode extension : CM (complete main)
Format settings, Endianness : Big
Codec ID : A_AC3
Duration : 1 h 22 min
Bit rate mode : Constant
Bit rate : 384 kb/s
Channel(s) : 6 channels
Channel positions : Front: L C R, Side: L R, LFE
Sampling rate : 48.0 kHz
Frame rate : 31.250 FPS (1536 spf)
Bit depth : 16 bits
Compression mode : Lossy
Stream size : 228 MiB (7%)
Title : iTunes
Language : Russian
Default : Yes
Forced : No

piratbit.pw



Скачать Доминика через торрент https://i2.imageban.ru/out/2020/02/18/ff5b81290cc13573ebb5cf7fdd60c9b3.jpg Скачать фильм Доминика через торрент бесплантно в хорошем качестве Описание: Главный герой фильма Константин - успешный молодой архитектор. Он аккуратно выстраивает карьеру и находится в удобных отношениях ... 7.7 10 6
Торрент: Зарегистрирован [2020-02-18 05:07] · скачан: 89 раз
Статус: √ проверено
Размер: 3.18 GB
Как cкачать? Как скачать Доминика через торрент | qTorrent

% Раздел Тема Автор DL S | L
Фильмы [HD 720p, 1080p] (Хороший звук DUB, MVO) [ 9.72 GB ] Пароль «Рыба-меч» / Swordfish [2001 BDRip 1080p] RodDog Скачать
1 | 0
Фильмы [HD 720p, 1080p] (Хороший звук DUB, MVO) [ 7.24 GB ] Париж. Город Zомби / The Night Eats the World / La nuit a dévoré le monde [2018 BDRip 1080p] MVO bober100 Скачать
1 | 0
Фильмы 2018 [DVDrip, WEB-DLRip, HDrip] (DUB, MVO) [ 1.42 GB ] Париж. Город Zомби / The Night Eats the World / La nuit a dévoré le monde [2018 BDRip] MVO Twi7ter Скачать
2 | 0
Фильмы 2018 [DVDrip, WEB-DLRip, HDrip] (DUB, MVO) [ 1.55 GB ] Париж. Город Zомби / The Night Eats the World / La nuit a dévoré le monde [2018 BDRip-AVC] MVO bober100 Скачать
1 | 0
Фильмы 2018 [DVDrip, WEB-DLRip, HDrip] (DUB, MVO) [ 745 MB ] Париж. Город Zомби / The Night Eats the World / La nuit a dévoré le monde [2018 BDRip] MVO bober100 Скачать
1 | 0
Фильмы (Blu-ray, BD-Remux, HDDVD) [ 16.12 GB ] Париж. Город Zомби / The Night Eats the World / La nuit a dévoré le monde [2018 BD Remux 1080p] MVO bober100 Скачать
1 | 0
Фильмы с авторской озвучкой [ 1.46 GB ] Париж. Город Zомби / The Night Eats the World / La nuit a dévoré le monde [2018 BDRip] AVO [BadBajo] Twi7ter Скачать
1 | 0

28-11-2019 20:33  

Отключить всю рекламу на сайте

    Дорогой пользователь! Огромная просьба, поблагодарите релизера, оцените раздачу и оставьте свои комментарий, если Вы скачали Доминика через торрент бесплатно! Внесите свою лепту в развитие PiratBit!
    Комментировать посты могут только пользователи прошедшие не сложную регистрацию
    Показать сообщения:    

    Доминика через торрент
    Скачать бесплатно Доминика
    Доминика скачать торрент
    Доминика смотреть онлайн
    Cкачать фильм Доминика бесплатно
    Доминика скачать торрент в хорошем качестве
    Доминика смотреть онлайн бесплатно в хорошем качестве


    Вы не можете начинать темы
    Вы не можете отвечать на сообщения
    Вы не можете редактировать свои сообщения
    Вы не можете удалять свои сообщения
    Вы не можете голосовать в опросах
    Вы не можете прикреплять файлы к сообщениям
    Вы можете скачивать файлы