Marvel's Avengers Deluxe Edition (супер цена) 159р. Внимание количество ограничено!!!

2 сезон

iTunes

iTunes

1

iTunes

iTunes

iTunes

WEBRip

iTunes

30
pack

Новость дня

ВАЖНО

!!Акция!!

Alien_RageХит недели

RePack

Horizon Zero Dawn

ИГРА 18+

pack

RePack

jed

!!Акция!!

Alien_Rage

RePack

fifa19

RePack

Assassins Creed: Odyssey

RePack

NEED FOR SPEED™ PAYBACK

4 сезон

9 сезон

Бесстыжие 9 сезон

Все сериалы

все сериалы на PB.wtf

RePack

FAR CRY 5
  

Холодное сердце 2 / Frozen II (Крис Бак, Дженнифер Ли) [2019, Мультфильм, мюзикл, фэнтези, комедия, приключения, семейный, UHD BDRip 2160p, (SDR)] 2xDUB (rus, ukr) [iTunes, Онлайн кинотеатр] piratbit.pw

Холодное сердце 2 через торрент piratbit.pw

Раздают: 1 [ 0 KB/s ]
Размер: 12.68 GB | Добавлен: 7 мес. назад | Торрент скачан:132 раза
Скачать  

15-02-2020 17:27 Холодное сердце 2 Скачать торрент  

Холодное сердце 2 | Frozen II
Год выпуска: 2019
Страна: США
Студия: Walt Disney Animation Studios, Walt Disney Pictures
Жанр: Мультфильм, мюзикл, фэнтези, комедия, приключения, семейный
Продолжительность: 01:43:14
Перевод:
Дублированный | iTunes
Дублированный | Онлайн кинотеатр
Субтитры: Русские (Full), Английские (SDH)

Режиссер: Крис Бак, Дженнифер Ли

rating

В ролях: Идина Мензел, Кристен Белл, Джонатан Грофф, Джош Гэд, Стерлинг К. Браун, Эван Рэйчел Вуд, Альфред Молина, Марта Плимптон, Джейсон Риттер, Рэйчел Мэттьюз

Описание: Анна, Эльза, Кристоф, его верный олень Свен и никогда не унывающий снеговик Олаф должны будут покинуть уютное королевство Эренделл и отправиться ещё дальше на север, в путешествие, которое приведет их к истокам древних легенд и поможет раскрыть тайны, касающиеся прошлого их родной страны.

Качество: UHD BDRip 2160p
Формат: MKV

Видео: HEVC SDR, 16.1 Mбит/с, 3840x1608, 23.976 Кадр/с, 10 Бит
Аудио #01: 48 kHz, AC3, 5.1, 384 Kbps | iTunes | RUS |
Аудио #02: 48 kHz, AC3, 2.0, 192 Kbps | Онлайн кинотеатр | RUS |
Аудио #03: 48 kHz, AC3, 2.0, 256 Kbps | Дублированный | UKR |
Аудио #04: 48 kHz, AC3, 5.1, 640 Kbps | Оригинал | ENG |
скриншот  скриншот  скриншот  скриншот  

Общее
Уникальный идентификатор : 217507500351257591505135339170272866676 (0xA3A26BB9E94722FE96A6C36800F37174)
Полное имя : G:\Frozen.II.2019.2160p.BDRip.x265.10bit.SDR.Master5.mkv
Формат : Matroska
Версия формата : Version 4
Размер файла : 12,7 Гбайт
Продолжительность : 1 ч. 43 м.
Общий поток : 17,6 Мбит/сек
Название фильма : Frozen.II.2019.2160p.BDRip.x265.10bit.SDR.Master5
Дата кодирования : UTC 2020-02-15 16:15:03
Программа кодирования : mkvmerge v7.9.0 ('Birds') 64bit
Библиотека кодирования : libebml v1.3.1 + libmatroska v1.4.2
Обложка : Yes
Attachments : cover_land.jpg / small_cover.jpg / small_cover_land.jpg / cover.jpg / cover.png

Видео
Идентификатор : 1
Формат : HEVC
Формат/Информация : High Efficiency Video Coding
Профиль формата : Main 10@L5.1@High
Идентификатор кодека : V_MPEGH/ISO/HEVC
Продолжительность : 1 ч. 43 м.
Битрейт : 16,1 Мбит/сек
Ширина : 3840 пикселей
Высота : 1608 пикселей
Соотношение сторон : 2,40:1
Режим частоты кадров : Постоянный
Частота кадров : 23,976 (24000/1001) кадра/сек
Цветовое пространство : YUV
Субдискретизация насыщенности : 4:2:0
Битовая глубина : 10 бит
Бит/(Пиксели*Кадры) : 0.109
Размер потока : 11,6 Гбайт (92%)
Заголовок : Frozen.II.2019.2160p.BluRay.x265.10bit.SDR.DTS-HD.MA.TrueHD.7.1.Atmos-SWTYBLZ
Библиотека кодирования : x265 3.0+1-ed72af837053:[Windows][GCC 8.2.0][64 bit] 10bit
Настройки программы : cpuid=1111039 / frame-threads=6 / numa-pools=40 / wpp / no-pmode / no-pme / no-psnr / no-ssim / log-level=2 / input-csp=1 / input-res=3840x1608 / interlace=0 / total-frames=148499 / level-idc=51 / high-tier=1 / uhd-bd=0 / ref=3 / no-allow-non-conformance / repeat-headers / annexb / aud / hrd / info / hash=0 / no-temporal-layers / no-open-gop / min-keyint=1 / keyint=24 / gop-lookahead=0 / bframes=6 / b-adapt=2 / b-pyramid / bframe-bias=0 / rc-lookahead=25 / lookahead-slices=4 / scenecut=40 / radl=0 / no-splice / no-intra-refresh / ctu=64 / min-cu-size=8 / no-rect / no-amp / max-tu-size=32 / tu-inter-depth=1 / tu-intra-depth=1 / limit-tu=0 / rdoq-level=0 / dynamic-rd=0.00 / no-ssim-rd / signhide / no-tskip / nr-intra=0 / nr-inter=0 / no-constrained-intra / strong-intra-smoothing / max-merge=2 / limit-refs=3 / no-limit-modes / me=1 / subme=2 / merange=57 / temporal-mvp / weightp / no-weightb / no-analyze-src-pics / deblock=1:1 / no-sao / no-sao-non-deblock / rd=3 / no-early-skip / rskip / no-fast-intra / no-tskip-fast / no-cu-lossless / no-b-intra / no-splitrd-skip / rdpenalty=0 / psy-rd=0.40 / psy-rdoq=0.00 / no-rd-refine / no-lossless / cbqpoffs=0 / crqpoffs=0 / rc=crf / crf=13.0 / qcomp=0.60 / qpstep=4 / stats-write=0 / stats-read=0 / vbv-maxrate=160000 / vbv-bufsize=160000 / vbv-init=0.9 / crf-max=0.0 / crf-min=0.0 / ipratio=1.40 / pbratio=1.30 / aq-mode=1 / aq-strength=0.40 / cutree / zone-count=0 / no-strict-cbr / qg-size=32 / no-rc-grain / qpmax=69 / qpmin=0 / no-const-vbv / sar=1 / overscan=0 / videoformat=5 / range=0 / colorprim=2 / transfer=2 / colormatrix=2 / chromaloc=0 / display-window=0 / max-cll=0,0 / min-luma=0 / max-luma=1023 / log2-max-poc-lsb=8 / vui-timing-info / vui-hrd-info / slices=1 / opt-qp-pps / opt-ref-list-length-pps / no-multi-pass-opt-rps / scenecut-bias=0.05 / no-opt-cu-delta-qp / no-aq-motion / no-hdr / no-hdr-opt / no-dhdr10-opt / no-idr-recovery-sei / analysis-reuse-level=5 / scale-factor=0 / refine-intra=0 / refine-inter=0 / refine-mv=0 / refine-ctu-distortion=0 / no-limit-sao / ctu-info=0 / no-lowpass-dct / refine-analysis-type=0 / copy-pic=1 / max-ausize-factor=1.0 / no-dynamic-refine / no-single-sei / no-hevc-aq / qp-adaptation-range=1.00
Default : Да
Forced : Нет

Аудио #1
Идентификатор : 2
Формат : AC-3
Формат/Информация : Audio Coding 3
Коммерческое название : Dolby Digital
Идентификатор кодека : A_AC3
Продолжительность : 1 ч. 43 м.
Вид битрейта : Постоянный
Битрейт : 384 Кбит/сек
Каналы : 6 каналов
Channel layout : L R C LFE Ls Rs
Частота : 48,0 КГц
Частота кадров : 31,250 кадров/сек (1536 SPF)
Битовая глубина : 16 бит
Метод сжатия : С потерями
Размер потока : 283 Мбайт (2%)
Заголовок : iTunes
Язык : Russian
ServiceKind/String : Complete Main
Default : Нет
Forced : Да

Аудио #2
Идентификатор : 3
Формат : AC-3
Формат/Информация : Audio Coding 3
Коммерческое название : Dolby Digital
Идентификатор кодека : A_AC3
Продолжительность : 1 ч. 43 м.
Вид битрейта : Постоянный
Битрейт : 192 Кбит/сек
Каналы : 2 канала
Channel layout : L R
Частота : 48,0 КГц
Частота кадров : 31,250 кадров/сек (1536 SPF)
Битовая глубина : 16 бит
Метод сжатия : С потерями
Размер потока : 142 Мбайт (1%)
Заголовок : Дубляж, Онлайн кинотеатр
Язык : Russian
ServiceKind/String : Complete Main
Default : Нет
Forced : Нет

Аудио #3
Идентификатор : 4
Формат : AC-3
Формат/Информация : Audio Coding 3
Коммерческое название : Dolby Digital
Идентификатор кодека : A_AC3
Продолжительность : 1 ч. 43 м.
Вид битрейта : Постоянный
Битрейт : 640 Кбит/сек
Каналы : 6 каналов
Channel layout : L R C LFE Ls Rs
Частота : 48,0 КГц
Частота кадров : 31,250 кадров/сек (1536 SPF)
Битовая глубина : 16 бит
Метод сжатия : С потерями
Размер потока : 473 Мбайт (4%)
Язык : English
ServiceKind/String : Complete Main
Default : Нет
Forced : Нет

Аудио #4
Идентификатор : 5
Формат : AC-3
Формат/Информация : Audio Coding 3
Коммерческое название : Dolby Digital
Идентификатор кодека : A_AC3
Продолжительность : 1 ч. 43 м.
Вид битрейта : Постоянный
Битрейт : 256 Кбит/сек
Каналы : 2 канала
Channel layout : L R
Частота : 48,0 КГц
Частота кадров : 31,250 кадров/сек (1536 SPF)
Битовая глубина : 16 бит
Метод сжатия : С потерями
Размер потока : 189 Мбайт (1%)
Язык : Ukrainian
ServiceKind/String : Complete Main
Default : Да
Forced : Нет

Текст #1
Идентификатор : 6
Формат : UTF-8
Идентификатор кодека : S_TEXT/UTF8
Идентификатор кодека/Информация : UTF-8 Plain Text
Продолжительность : 1 ч. 29 м.
Битрейт : 85 бит/сек
ElementCount : 1231
Размер потока : 56,4 Кбайт (0%)
Заголовок : Full
Язык : Russian
Default : Нет
Forced : Нет

Текст #2
Идентификатор : 7
Формат : PGS
Режим смешивания : zlib
Идентификатор кодека : S_HDMV/PGS
Идентификатор кодека/Информация : Picture based subtitle format used on BDs/HD-DVDs
Продолжительность : 1 ч. 43 м.
Битрейт : 15,4 Кбит/сек
ElementCount : 3878
Размер потока : 11,4 Мбайт (0%)
Заголовок : SDH
Язык : English
Default : Да
Forced : Нет

Текст #3
Идентификатор : 8
Формат : UTF-8
Идентификатор кодека : S_TEXT/UTF8
Идентификатор кодека/Информация : UTF-8 Plain Text
Продолжительность : 1 ч. 41 м.
Битрейт : 72 бит/сек
ElementCount : 1312
Размер потока : 53,9 Кбайт (0%)
Заголовок : Full
Язык : Russian
Default : Нет
Forced : Нет

Текст #4
Идентификатор : 9
Формат : UTF-8
Идентификатор кодека : S_TEXT/UTF8
Идентификатор кодека/Информация : UTF-8 Plain Text
Продолжительность : 1 ч. 42 м.
Битрейт : 95 бит/сек
ElementCount : 1810
Размер потока : 71,6 Кбайт (0%)
Заголовок : SDH
Язык : Russian
Default : Нет
Forced : Нет

Текст #5
Идентификатор : 10
Формат : UTF-8
Идентификатор кодека : S_TEXT/UTF8
Идентификатор кодека/Информация : UTF-8 Plain Text
Продолжительность : 1 ч. 41 м.
Битрейт : 56 бит/сек
ElementCount : 1560
Размер потока : 42,0 Кбайт (0%)
Заголовок : Full
Язык : English
Default : Нет
Forced : Нет

Текст #6
Идентификатор : 11
Формат : UTF-8
Идентификатор кодека : S_TEXT/UTF8
Идентификатор кодека/Информация : UTF-8 Plain Text
Продолжительность : 1 ч. 42 м.
Битрейт : 68 бит/сек
ElementCount : 1930
Размер потока : 51,2 Кбайт (0%)
Заголовок : SDH
Язык : English
Default : Нет
Forced : Нет

Меню
00:00:00.000 : en:Chapter 1
00:05:42.592 : en:Chapter 2
00:08:27.716 : en:Chapter 3
00:15:01.400 : en:Chapter 4
00:16:29.655 : en:Chapter 5
00:21:25.117 : en:Chapter 6
00:25:45.252 : en:Chapter 7
00:29:08.914 : en:Chapter 8
00:33:45.023 : en:Chapter 9
00:40:27.216 : en:Chapter 10
00:44:37.925 : en:Chapter 11
00:47:42.318 : en:Chapter 12
00:53:04.515 : en:Chapter 13
00:55:27.241 : en:Chapter 14
01:02:36.711 : en:Chapter 15
01:09:57.527 : en:Chapter 16
01:13:48.382 : en:Chapter 17
01:19:26.637 : en:Chapter 18
01:24:28.146 : en:Chapter 19
01:31:17.263 : en:Chapter 20

piratbit.pw



Скачать Холодное сердце 2 через торрент https://b.radikal.ru/b17/2002/23/b74c0c82118d.png Скачать фильм Холодное сердце 2 через торрент бесплантно в хорошем качестве Описание: Анна, Эльза, Кристоф, его верный олень Свен и никогда не унывающий снеговик Олаф должны будут покинуть уютное королевство ... 8.5 10 6
Торрент: Зарегистрирован [2020-02-15 17:27] · скачан: 132 раз
Статус: √ проверено
Размер: 12.68 GB
Как cкачать? Как скачать Холодное сердце 2 через торрент | qTorrent

% Раздел Тема Автор DL S | L
3D Мультфильмы [ 6.44 GB ] Холодное сердце 2 в 3D / Frozen II in 3D [2019 мультфильм мюзикл BDRip 1080p ] Анаглиф от R.G. HD-Films slaventi-69 Скачать
1 | 0
3D Мультфильмы [ 9.14 GB ] Холодное сердце 2 в 3Д / Frozen II 3D [2019 мультфильм мюзикл BDRip 1080p] OverUnder / Вертикальная стереопара () serega768 Скачать
1 | 0
Зарубежные Мультфильмы (BDRip 1080p, 720p, Blu-ray, BD-Remux) [ 35.33 GB ] Холодное сердце 2 / Frozen II [2019 Мультфильм мюзикл BD Remux 1080p ] bober100 Скачать
3 | 0
3D Мультфильмы [ 6.97 GB ] Холодное сердце 2 3Д / Frozen II 3D [2019 Мультфильм мюзикл BDRip 1080p ] DUB bober100 Скачать
2 | 0
Зарубежные Мультфильмы (BDRip 1080p, 720p, Blu-ray, BD-Remux) [ 19.88 GB ] Холодное сердце 2 / Frozen II [2019 Мультфильм мюзикл BD Remux 1080p] bober100 Скачать
5 | 0
Зарубежные Мультфильмы (BDRip 1080p, 720p, Blu-ray, BD-Remux) [ 6.71 GB ] Холодное сердце 2 / Frozen II [2019 Мультфильм мюзикл BDRip 1080p] bober100 Скачать
17 | 0
Ultra HD (UHD: 2K, 4K, 8K) [ 50.62 GB ] Холодное сердце 2 / Frozen II [2019 Мультфильм мюзикл UHD BDRemux 2160p] bober100 Скачать
4 | 0

28-11-2019 20:33  

Отключить всю рекламу на сайте

    Дорогой пользователь! Огромная просьба, поблагодарите релизера, оцените раздачу и оставьте свои комментарий, если Вы скачали Холодное сердце 2 через торрент бесплатно! Внесите свою лепту в развитие PiratBit!
    Комментировать посты могут только пользователи прошедшие не сложную регистрацию
    Показать сообщения:    

    Холодное сердце 2 через торрент
    Скачать бесплатно Холодное сердце 2
    Холодное сердце 2 скачать торрент
    Холодное сердце 2 смотреть онлайн
    Cкачать фильм Холодное сердце 2 бесплатно
    Холодное сердце 2 скачать торрент в хорошем качестве
    Холодное сердце 2 смотреть онлайн бесплатно в хорошем качестве


    Вы не можете начинать темы
    Вы не можете отвечать на сообщения
    Вы не можете редактировать свои сообщения
    Вы не можете удалять свои сообщения
    Вы не можете голосовать в опросах
    Вы не можете прикреплять файлы к сообщениям
    Вы можете скачивать файлы